<?xml version="1.0" standalone="no"?>
<!DOCTYPE svg PUBLIC "-//W3C//DTD SVG 1.1//EN" "http://www.w3.org/Graphics/SVG/1.1/DTD/svg11.dtd" >
<svg xmlns="http://www.w3.org/2000/svg" xmlns:xlink="http://www.w3.org/1999/xlink" version="1.1">
<metadata>
Created by FontForge 20201107 at Mon May 11 14:26:14 2015
 By 
Copyright (c) 2015 by 29Letters | 29LT All rights reserved.
</metadata>
<defs>
<font id="29LTKaff-Medium" horiz-adv-x="0" >
  <font-face 
    font-family="29LT Kaff Medium"
    font-weight="500"
    font-stretch="normal"
    units-per-em="1000"
    panose-1="0 0 6 0 0 0 0 0 0 0"
    ascent="725"
    descent="-275"
    x-height="528"
    cap-height="725"
    bbox="-400 -680 2813 1132"
    underline-thickness="70"
    underline-position="-175"
    unicode-range="U+000D-FEFC"
  />
<missing-glyph horiz-adv-x="600" 
 />
    <glyph glyph-name="fi" unicode="fi" horiz-adv-x="596" 
d="M248 729q33 0 69 -6l-6 -93q-29 3 -48 3q-26 0 -41 -14t-15 -52v-39h106v-86h-106v-442h-119v442h-75v86h75v41q0 160 160 160zM519 725v-120h-119v120h119zM524 528v-528h-119v528h119z" />
    <glyph glyph-name="fl" unicode="fl" horiz-adv-x="596" 
d="M248 729q33 0 69 -6l-6 -93q-29 3 -48 3q-26 0 -41 -14t-15 -52v-39h106v-86h-106v-442h-119v442h-75v86h75v41q0 160 160 160zM524 0h-119v725h119v-725z" />
    <glyph glyph-name="uniFC43" unicode="&#xfedf;&#xfef0;" horiz-adv-x="853" arabic-form="isolated" 
d="M663 725h110v-534q0 -114 -90 -163q-36 -115 -134.5 -179t-241.5 -64q-125 0 -201 73t-76 206q0 89 44 221l96 -26q-35 -100 -35 -180q0 -179 198 -179q78 0 139 26t95 74h-8h-148l19 115h129q58 0 81 20t23 64v526z" />
    <glyph glyph-name="uniFC86" unicode="&#xfee0;&#xfef0;" horiz-adv-x="917" arabic-form="final" 
d="M917 115q10 0 10 -10v-94q0 -11 -10 -11q-111 0 -167 61q-36 -34 -72 -48q-39 -109 -136.5 -168.5t-234.5 -59.5q-125 0 -201 73t-76 206q0 89 44 221l96 -26q-35 -100 -35 -180q0 -179 198 -179q78 0 139 26t95 74h-116l19 115h129q67 0 108 30q-4 20 -4 46v534h110
v-526q0 -44 23 -64t81 -20z" />
    <glyph glyph-name="uniFEF5" unicode="&#xfedf;&#xfe82;" horiz-adv-x="595" arabic-form="isolated" 
d="M491 306q74 -66 74 -144q0 -66 -44.5 -114t-140.5 -48h-315l-50 115q117 69 182 117.5t102 104.5l-237 207l71 84l209 -188q10 41 10 98v237h110v-237q0 -98 -34 -175zM90 693q-45 0 -51 -39h-60q0 52 27 83t72 31q22 0 64.5 -18.5t65.5 -18.5q46 0 80 26l-1 -76
q-33 -25 -77 -25q-23 0 -62 18.5t-58 18.5zM399 115q28 0 42 13t14 34q0 39 -45 78l-36 32q-71 -89 -200 -157h225z" />
    <glyph glyph-name="uniFEF6" unicode="&#xfee0;&#xfe82;" horiz-adv-x="671" arabic-form="final" 
d="M159 696q-45 0 -51 -39h-60q0 52 27 83t72 31q22 0 64.5 -18.5t65.5 -18.5q46 0 80 26l-1 -76q-33 -25 -77 -25q-23 0 -62 18.5t-58 18.5zM671 115q10 0 10 -10v-94q0 -11 -10 -11q-105 0 -163 56q-115 -56 -247 -56q-141 0 -241 34v110q90 -26 212 -29q-1 29 -6 61
q-10 63 -94 424h115q77 -345 85 -414q4 -24 1 -69q72 6 130 19q-6 26 -6 55v534h110v-526q0 -44 23 -64t81 -20z" />
    <glyph glyph-name="uniFEF7" unicode="&#xfedf;&#xfe84;" horiz-adv-x="595" arabic-form="isolated" 
d="M242 670h-167q-34 0 -75 -12v68q39 14 68 14q-24 22 -24 57q0 39 28 65.5t68 26.5q42 0 84 -20v-66q-42 16 -66 16q-21 0 -36 -12t-15 -31q0 -16 13 -26t33 -10h109zM491 306q74 -66 74 -144q0 -66 -44.5 -114t-140.5 -48h-315l-50 115q117 69 182 117.5t102 104.5
l-237 207l71 84l209 -188q10 41 10 98v237h110v-237q0 -98 -34 -175zM399 115q28 0 42 13t14 34q0 39 -45 78l-36 32q-71 -89 -200 -157h225z" />
    <glyph glyph-name="uniFEF8" unicode="&#xfee0;&#xfe84;" horiz-adv-x="671" arabic-form="final" 
d="M287 663h-167q-34 0 -75 -12v68q39 14 68 14q-24 23 -24 57q0 39 28 65.5t68 26.5q42 0 84 -20v-66q-42 16 -66 16q-21 0 -36 -12t-15 -31q0 -16 13 -26t33 -10h109zM671 115q10 0 10 -10v-94q0 -11 -10 -11q-105 0 -163 56q-115 -56 -247 -56q-141 0 -241 34v110
q90 -26 212 -29q-1 29 -6 61q-10 63 -94 424h115q77 -345 85 -414q4 -24 1 -69q72 6 130 19q-6 26 -6 55v534h110v-526q0 -44 23 -64t81 -20z" />
    <glyph glyph-name="uniFEF9" unicode="&#xfedf;&#xfe88;" horiz-adv-x="595" arabic-form="isolated" 
d="M491 306q74 -66 74 -144q0 -66 -44.5 -114t-140.5 -48h-315l-50 115q117 69 182 117.5t102 104.5l-237 207l71 84l209 -188q10 41 10 98v237h110v-237q0 -98 -34 -175zM399 115q28 0 42 13t14 34q0 39 -45 78l-36 32q-71 -89 -200 -157h225zM277 -156q0 -16 13 -26
t33 -10h109l-20 -70h-167q-34 0 -75 -12v68q39 14 68 14q-24 22 -24 57q0 39 28 65.5t68 26.5q42 0 84 -20v-66q-42 16 -66 16q-21 0 -36 -12t-15 -31z" />
    <glyph glyph-name="uniFEFA" unicode="&#xfee0;&#xfe88;" horiz-adv-x="671" arabic-form="final" 
d="M671 115q10 0 10 -10v-94q0 -11 -10 -11q-105 0 -163 56q-115 -56 -247 -56q-141 0 -241 34v110q90 -26 212 -29q-1 29 -6 61q-10 63 -94 424h115q77 -345 85 -414q4 -24 1 -69q72 6 130 19q-6 26 -6 55v534h110v-526q0 -44 23 -64t81 -20zM257 -156q0 -16 13 -26t33 -10
h109l-20 -70h-167q-34 0 -75 -12v68q39 14 68 14q-24 22 -24 57q0 39 28 65.5t68 26.5q42 0 84 -20v-66q-42 16 -66 16q-21 0 -36 -12t-15 -31z" />
    <glyph glyph-name="uniFEFB" unicode="&#xfedf;&#xfe8e;" horiz-adv-x="595" arabic-form="isolated" 
d="M491 306q74 -66 74 -144q0 -66 -44.5 -114t-140.5 -48h-315l-50 115q117 69 182 117.5t102 104.5l-237 207l71 84l209 -188q10 41 10 98v237h110v-237q0 -98 -34 -175zM399 115q28 0 42 13t14 34q0 39 -45 78l-36 32q-71 -89 -200 -157h225z" />
    <glyph glyph-name="uniFEFC" unicode="&#xfee0;&#xfe8e;" horiz-adv-x="671" arabic-form="final" 
d="M671 115q10 0 10 -10v-94q0 -11 -10 -11q-105 0 -163 56q-115 -56 -247 -56q-141 0 -241 34v110q90 -26 212 -29q-1 29 -6 61q-10 63 -94 424h115q77 -345 85 -414q4 -24 1 -69q72 6 130 19q-6 26 -6 55v534h110v-526q0 -44 23 -64t81 -20z" />
    <glyph glyph-name="uni06440671" unicode="&#xfedf;&#xfb51;" horiz-adv-x="595" 
d="M305 766q0 -49 -40 -76t-113 -27q-76 0 -152 30l20 64q20 -7 41 -12q48 60 82 86t68 26q40 0 67 -26t27 -65zM199 790q-33 0 -88 -54q24 -3 41 -3q77 0 77 33q0 11 -8.5 17.5t-21.5 6.5zM491 306q74 -66 74 -144q0 -66 -44.5 -114t-140.5 -48h-315l-50 115
q117 69 182 117.5t102 104.5l-237 207l71 84l209 -188q10 41 10 98v237h110v-237q0 -98 -34 -175zM399 115q28 0 42 13t14 34q0 39 -45 78l-36 32q-71 -89 -200 -157h225z" />
    <glyph glyph-name="uni06440671.fina" unicode="&#xfee0;&#xfb51;" horiz-adv-x="671" 
d="M351 749q0 -49 -40 -76t-113 -27q-76 0 -152 30l20 64q20 -7 41 -12q48 60 82 86t68 26q40 0 67 -26t27 -65zM245 773q-33 0 -88 -54q24 -3 41 -3q77 0 77 33q0 11 -8.5 17.5t-21.5 6.5zM671 115q10 0 10 -10v-94q0 -11 -10 -11q-105 0 -163 56q-115 -56 -247 -56
q-141 0 -241 34v110q90 -26 212 -29q-1 29 -6 61q-10 63 -94 424h115q77 -345 85 -414q4 -24 1 -69q72 6 130 19q-6 26 -6 55v534h110v-526q0 -44 23 -64t81 -20z" />
    <glyph glyph-name="uni066E.init" unicode="&#x66e;" horiz-adv-x="264" 
d="M184 485q30 -205 30 -294q0 -87 -55.5 -139t-158.5 -52q-10 0 -10 11v94q0 10 10 10q58 0 81 20t23 64q0 81 -30 286h110z" />
    <glyph glyph-name="uni066E.medi" unicode="&#x66e;" horiz-adv-x="300" 
d="M300 115q10 0 10 -10v-94q0 -11 -10 -11q-80 0 -155 59q-53 -59 -145 -59q-10 0 -10 11v94q0 10 10 10q67 0 90 50q23 51 23 205h102q0 -146 -27 -231q49 -24 112 -24z" />
    <glyph glyph-name="uni066E.fina" unicode="&#x66e;" horiz-adv-x="831" 
d="M831 115q10 0 10 -10v-94q0 -11 -10 -11q-80 0 -155 59q-44 -50 -116 -57q-2 -2 -5 -2h-257q-131 0 -199.5 62t-68.5 181q0 69 25 197l103 -17q-20 -103 -20 -160q0 -82 40.5 -115t141.5 -33h211q67 0 90 50q23 51 23 205h102q0 -146 -27 -231q49 -24 112 -24z" />
    <glyph glyph-name="uni066F.fina" unicode="&#x66f;" horiz-adv-x="769" 
d="M769 115q10 0 10 -10v-94q0 -11 -10 -11h-60q-16 -101 -107.5 -158t-244.5 -57q-170 0 -248.5 68.5t-78.5 210.5q0 89 44 221l96 -26q-35 -100 -35 -180q0 -96 56 -138.5t189 -42.5q93 0 149 28.5t71 73.5h-71q-121 0 -193.5 63.5t-72.5 172.5q0 108 65.5 178.5
t165.5 70.5q92 0 149 -59.5t63 -168.5q2 -36 5 -142h58zM373 240q0 -125 171 -125h59q-2 54 -8 133q-9 122 -104 122q-50 0 -84 -36.5t-34 -93.5z" />
    <glyph glyph-name="uni06A1.init" unicode="&#x6a1;" horiz-adv-x="522" 
d="M264 495q93 0 155.5 -66t62.5 -164q0 -120 -71 -192.5t-188 -72.5h-223q-10 2 -10 11v94q0 10 10 10h99q-14 22 -23 34q-42 62 -42 130q0 91 66 153.5t164 62.5zM226 115q67 0 106 37t39 103q0 54 -32 89t-81 35q-51 0 -82.5 -34t-31.5 -83q0 -40 33 -90q27 -42 33 -57
h16z" />
    <glyph glyph-name="uni06A1.medi" unicode="&#x6a1;" horiz-adv-x="534" 
d="M534 115q10 0 10 -10v-94q0 -11 -10 -11q-119 0 -255 37q-126 -37 -279 -37q-10 2 -10 11v94q0 10 10 10q61 0 111 5q-67 62 -67 148q0 92 64.5 159.5t159.5 67.5t158 -63.5t63 -163.5q0 -78 -67 -147q42 -6 112 -6zM265 379q-48 0 -79.5 -33t-31.5 -86q0 -47 28 -83.5
t80 -54.5q116 32 116 134q0 55 -31 89t-82 34z" />
    <glyph glyph-name="uni06A1.fina" unicode="&#x6a1;" horiz-adv-x="953" 
d="M953 115q10 0 10 -10v-94q0 -11 -10 -11q-119 0 -255 37q-114 -34 -262 -37h-2h-136q-131 0 -199.5 62t-68.5 181q0 68 17 145l103 -17q-12 -67 -12 -108q0 -82 40.5 -115t141.5 -33h99q61 0 111 5q-67 62 -67 148q0 92 64.5 159.5t159.5 67.5t158 -63.5t63 -163.5
q0 -78 -67 -147q42 -6 112 -6zM684 379q-48 0 -79.5 -33t-31.5 -86q0 -47 28 -83.5t80 -54.5q116 32 116 134q0 55 -31 89t-82 34z" />
    <glyph glyph-name="swashkafar.init" unicode="&#x6aa;" horiz-adv-x="807" 
d="M517 440q111 0 180.5 -60.5t69.5 -159.5q0 -100 -61.5 -160t-162.5 -60h-543q-10 0 -10 11v94q0 10 10 10h531q60 0 93 26.5t33 74.5q0 52 -36 80.5t-101 28.5h-433l-65 115l237 285l85 -69l-201 -216h374z" />
    <glyph glyph-name="swashkafar.medi" unicode="&#x6aa;" horiz-adv-x="851" 
d="M851 115q10 0 10 -10v-94q0 -11 -10 -11q-77 0 -151 55q-60 -55 -157 -55h-543q-10 0 -10 11v94q0 10 10 10h531q60 0 93 26.5t33 74.5q0 52 -36 80.5t-101 28.5h-433l-65 115l237 285l85 -69l-201 -216h374q111 0 180.5 -60.5t69.5 -159.5q0 -48 -15 -87q44 -18 99 -18z
" />
    <glyph glyph-name="swashkafar.fina" unicode="&#x6aa;" horiz-adv-x="949" 
d="M949 115q10 0 10 -10v-94q0 -11 -10 -11q-78 0 -149 54q-60 -54 -156 -54h-396q-67 0 -117 15t-106 53l52 98q86 -51 171 -51h384q60 0 93 26.5t33 74.5q0 52 -36 80.5t-101 28.5h-433l-65 115l237 285l85 -69l-201 -216h374q111 0 180.5 -60.5t69.5 -159.5
q0 -49 -15 -88q43 -17 96 -17z" />
    <glyph glyph-name="uni06C2.fina" unicode="&#x6c2;" horiz-adv-x="535" 
d="M498 600h-167q-34 0 -75 -12v68q39 14 68 14q-24 23 -24 57q0 39 28 65.5t68 26.5q42 0 84 -20v-66q-42 16 -66 16q-21 0 -36 -12t-15 -31q0 -16 13 -26t33 -10h109zM535 115q10 0 10 -10v-94q0 -11 -10 -11q-89 0 -136 53q-91 -53 -161 -53q-95 0 -151.5 51t-56.5 139
q0 42 15 84t48.5 85t99 76.5t155.5 47.5v55h110v-345q0 -39 17 -58.5t60 -19.5zM240 114q57 0 116 22q-8 35 -8 72v169q-99 -17 -153.5 -64t-54.5 -114q0 -41 26 -63t74 -22z" />
    <glyph glyph-name="uni06C3.fina" unicode="&#x6c3;" horiz-adv-x="628" 
d="M297 587l-75 -74l-89 88l88 88l76 -74l75 74l89 -88l-88 -88zM628 115q10 0 10 -10v-94q0 -11 -10 -11q-71 0 -119 43t-88 144q-30 76 -54 107t-66 31q-39 0 -68.5 -34t-70.5 -127l-37 -84l-95 45l37 84q55 127 107.5 179t125.5 52q67 0 113 -41t93 -138q3 -6 14.5 -31
t16.5 -35t16.5 -29t21 -27.5t24 -16t29.5 -7.5z" />
    <glyph glyph-name="uniFB51" unicode="&#x671;" horiz-adv-x="294" arabic-form="final" 
d="M282 728q0 -49 -40 -76t-113 -27q-76 0 -152 30l20 64q20 -7 41 -12q48 60 82 86t68 26q40 0 67 -26t27 -65zM176 752q-33 0 -88 -54q24 -3 41 -3q77 0 77 33q0 11 -8.5 17.5t-21.5 6.5zM294 115q10 0 10 -10v-94q0 -11 -10 -11q-103 0 -158.5 52t-55.5 139v409h110v-401
q0 -44 23 -64t81 -20z" />
    <glyph glyph-name="uniFB57" unicode="&#x67e;" horiz-adv-x="831" arabic-form="final" 
d="M831 115q10 0 10 -10v-94q0 -11 -10 -11q-80 0 -155 59q-44 -50 -116 -57q-2 -2 -5 -2h-257q-131 0 -199.5 62t-68.5 181q0 69 25 197l103 -17q-20 -103 -20 -160q0 -82 40.5 -115t141.5 -33h211q67 0 90 50q23 51 23 205h102q0 -146 -27 -231q49 -24 112 -24zM437 -149
l80 79l89 -88l-88 -89l-81 80l-80 -80l-89 89l88 88zM367 -289l70 71l71 -71l-70 -70z" />
    <glyph glyph-name="uniFB58" unicode="&#x67e;" horiz-adv-x="339" arabic-form="initial" 
d="M0 0q-10 0 -10 11v94q0 10 10 10h80q58 0 81 20t23 64q0 81 -30 286h110q30 -205 30 -294q0 -87 -55.5 -139t-158.5 -52h-80zM211 -60l89 -88l-88 -89l-81 80l-80 -80l-89 89l88 88l81 -79zM61 -279l70 71l71 -71l-70 -70z" />
    <glyph glyph-name="uniFB59" unicode="&#x67e;" horiz-adv-x="370" arabic-form="medial" 
d="M370 115q10 0 10 -10v-94q0 -11 -10 -11q-91 0 -180 75q-57 -75 -190 -75q-10 0 -10 11v94q0 10 10 10q90 0 119 48q17 28 21.5 73.5t4.5 133.5h102q0 -142 -19 -215q70 -40 142 -40zM166 -142l80 79l89 -88l-88 -89l-81 80l-80 -80l-89 89l88 88zM96 -282l70 71l71 -71
l-70 -70z" />
    <glyph glyph-name="uniFB67" unicode="&#x679;" horiz-adv-x="831" arabic-form="final" 
d="M315 440l-36 65h66v165h60v-103q67 76 122 76q46 0 73.5 -28t27.5 -68q0 -49 -49.5 -78t-132.5 -29h-131zM514 578q-23 0 -45 -15t-67 -58h44q107 0 107 42q0 14 -11 22.5t-28 8.5zM831 115q10 0 10 -10v-94q0 -11 -10 -11q-80 0 -155 59q-44 -50 -116 -57q-2 -2 -5 -2
h-257q-131 0 -199.5 62t-68.5 181q0 69 25 197l103 -17q-20 -103 -20 -160q0 -82 40.5 -115t141.5 -33h211q67 0 90 50q23 51 23 205h102q0 -146 -27 -231q49 -24 112 -24z" />
    <glyph glyph-name="uniFB68" unicode="&#x679;" horiz-adv-x="383" arabic-form="initial" 
d="M262 741q46 0 73.5 -28t27.5 -68q0 -49 -49.5 -78t-132.5 -29h-131l-36 65h66v165h60v-103q66 76 122 76zM181 603q107 0 107 42q0 14 -11 22.5t-28 8.5q-23 0 -45 -15t-67 -58h44zM154 485h110q30 -205 30 -294q0 -87 -55.5 -139t-158.5 -52h-80q-10 0 -10 11v94
q0 10 10 10h80q58 0 81 20t23 64q0 81 -30 286z" />
    <glyph glyph-name="uniFB69" unicode="&#x679;" horiz-adv-x="370" arabic-form="medial" 
d="M50 440l-36 65h66v165h60v-103q66 76 122 76q46 0 73.5 -28t27.5 -68q0 -49 -49.5 -78t-132.5 -29h-131zM249 578q-23 0 -45 -15t-67 -58h44q107 0 107 42q0 14 -11 22.5t-28 8.5zM370 115q10 0 10 -10v-94q0 -11 -10 -11q-91 0 -180 75q-57 -75 -190 -75q-10 0 -10 11
v94q0 10 10 10q90 0 119 48q17 28 21.5 73.5t4.5 133.5h102q0 -142 -19 -215q70 -40 142 -40z" />
    <glyph glyph-name="uniFB6B" unicode="&#x6a4;" horiz-adv-x="953" arabic-form="final" 
d="M760 755l-70 -70l-71 70l70 71zM690 617l-80 -79l-89 88l88 89l81 -80l80 80l89 -89l-88 -88zM953 115q10 0 10 -10v-94q0 -11 -10 -11q-119 0 -255 37q-114 -34 -262 -37h-2h-136q-131 0 -199.5 62t-68.5 181q0 68 17 145l103 -17q-12 -67 -12 -108q0 -82 40.5 -115
t141.5 -33h99q61 0 111 5q-67 62 -67 148q0 92 64.5 159.5t159.5 67.5t158 -63.5t63 -163.5q0 -78 -67 -147q42 -6 112 -6zM684 379q-48 0 -79.5 -33t-31.5 -86q0 -47 28 -83.5t80 -54.5q116 32 116 134q0 55 -31 89t-82 34z" />
    <glyph glyph-name="uniFB6C" unicode="&#x6a4;" horiz-adv-x="522" arabic-form="initial" 
d="M337 755l-70 -70l-71 70l70 71zM267 617l-80 -79l-89 88l88 89l81 -80l80 80l89 -89l-88 -88zM264 495q93 0 155.5 -66t62.5 -164q0 -120 -71 -192.5t-188 -72.5h-223q-10 2 -10 11v94q0 10 10 10h99q-14 22 -23 34q-42 62 -42 130q0 91 66 153.5t164 62.5zM226 115
q67 0 106 37t39 103q0 54 -32 89t-81 35q-51 0 -82.5 -34t-31.5 -83q0 -40 33 -90q27 -42 33 -57h16z" />
    <glyph glyph-name="uniFB6D" unicode="&#x6a4;" horiz-adv-x="534" arabic-form="medial" 
d="M344 755l-70 -70l-71 70l70 71zM274 617l-80 -79l-89 88l88 89l81 -80l80 80l89 -89l-88 -88zM534 115q10 0 10 -10v-94q0 -11 -10 -11q-119 0 -255 37q-126 -37 -279 -37q-10 2 -10 11v94q0 10 10 10q61 0 111 5q-67 62 -67 148q0 92 64.5 159.5t159.5 67.5t158 -63.5
t63 -163.5q0 -78 -67 -147q42 -6 112 -6zM265 379q-48 0 -79.5 -33t-31.5 -86q0 -47 28 -83.5t80 -54.5q116 32 116 134q0 55 -31 89t-82 34z" />
    <glyph glyph-name="uniFB7B" unicode="&#x686;" horiz-adv-x="651" arabic-form="final" 
d="M651 115q10 0 10 -10v-94q0 -11 -10 -11q-192 0 -192 167v34q-131 -25 -220.5 -89t-89.5 -149q0 -34 14.5 -62.5t52.5 -70.5l-86 -60q-90 95 -90 193q0 72 35 129.5t95.5 94.5t127.5 60.5t146 37.5q-35 20 -88 59t-92 59t-80 20t-103 -23l-32 100q73 38 140 38
q51 0 105.5 -28.5t97 -64t102.5 -73t117 -50.5l-30 -110q-15 0 -47 -2v-25q0 -39 25 -54.5t92 -15.5zM437 -145l80 79l89 -88l-88 -89l-81 80l-80 -80l-89 89l88 88zM367 -285l70 71l71 -71l-70 -70z" />
    <glyph glyph-name="uniFB7C" unicode="&#x686;" horiz-adv-x="611" arabic-form="initial" 
d="M189 485q51 0 102 -25t89.5 -56.5t96 -66t114.5 -48.5l-30 -110q-66 -11 -118.5 -34t-89 -46.5t-79 -46.5t-111 -37.5t-162.5 -14.5q-11 0 -11 11v94q0 10 11 10q83 0 155 14t110.5 28.5t97 42t83.5 37.5q-40 20 -91.5 57t-90 56.5t-81.5 19.5q-41 0 -103 -23l-32 100
q73 38 140 38zM281 -145l80 79l89 -88l-88 -89l-81 80l-80 -80l-89 89l88 88zM211 -285l70 71l71 -71l-70 -70z" />
    <glyph glyph-name="uniFB7D" unicode="&#x686;" horiz-adv-x="631" arabic-form="medial" 
d="M631 115q10 0 10 -10v-94q0 -11 -10 -11q-174 0 -190 145q-35 -15 -84.5 -45t-84.5 -49.5t-106 -35t-165 -15.5q-11 0 -11 11v94q0 10 11 10q83 0 155 14t110.5 28.5t97 42t83.5 37.5q-40 20 -91.5 57t-90 56.5t-81.5 19.5q-41 0 -103 -23l-32 100q73 38 140 38
q51 0 102 -25t89.5 -56.5t96 -66t114.5 -48.5l-30 -110l-46 -9q16 -55 116 -55zM281 -145l80 79l89 -88l-88 -89l-81 80l-80 -80l-89 89l88 88zM211 -285l70 71l71 -71l-70 -70z" />
    <glyph glyph-name="uniFB89" unicode="&#x688;" horiz-adv-x="513" arabic-form="final" 
d="M122 538l-36 65h66v165h60v-103q66 76 122 76q46 0 73.5 -28t27.5 -68q0 -49 -49.5 -78t-132.5 -29h-131zM321 676q-23 0 -45 -15t-67 -58h44q107 0 107 42q0 14 -11 22.5t-28 8.5zM513 115q10 0 10 -10v-94q0 -11 -10 -11q-84 0 -140 52q-78 -52 -182 -52q-81 0 -181 33
l23 108q87 -26 158 -26q70 0 128 13q-9 19 -19 46q-38 110 -73 311h115q36 -223 58 -286q28 -84 113 -84z" />
    <glyph glyph-name="uniFB8B" unicode="&#x698;" horiz-adv-x="347" arabic-form="final" 
d="M229 723l-70 -70l-71 70l70 71zM159 585l-80 -79l-89 88l88 89l81 -80l80 80l89 -89l-88 -88zM347 115q10 0 10 -10v-94q0 -11 -10 -11q-71 0 -98 39v-17q0 -112 -69.5 -174.5t-189.5 -62.5v105q72 0 112.5 35.5t40.5 104.5q0 135 -35 410h110q17 -107 25 -246l3 -19
q4 -32 28.5 -46t72.5 -14z" />
    <glyph glyph-name="uniFB8D" unicode="&#x691;" horiz-adv-x="347" arabic-form="final" 
d="M28 495l-36 65h66v165h60v-103q66 76 122 76q46 0 73.5 -28t27.5 -68q0 -49 -49.5 -78t-132.5 -29h-131zM227 633q-23 0 -45 -15t-67 -58h44q107 0 107 42q0 14 -11 22.5t-28 8.5zM347 115q10 0 10 -10v-94q0 -11 -10 -11q-71 0 -98 39v-17q0 -112 -69.5 -174.5
t-189.5 -62.5v105q72 0 112.5 35.5t40.5 104.5q0 135 -35 410h110q17 -107 25 -246l3 -19q4 -32 28.5 -46t72.5 -14z" />
    <glyph glyph-name="uniFB8F" unicode="&#x6a9;" horiz-adv-x="987" arabic-form="final" 
d="M987 115q10 0 10 -10v-94q0 -11 -10 -11q-90 0 -170 71q-73 -71 -213 -71h-306q-131 0 -199.5 62t-68.5 181q0 69 25 197l103 -17q-20 -103 -20 -160q0 -82 40.5 -115t141.5 -33h292q66 0 107 23.5t41 60.5t-31.5 67t-107.5 64l-245 111v77l360 286l70 -84l-286 -219
l158 -72q192 -88 192 -223q0 -30 -8 -60q55 -31 125 -31z" />
    <glyph glyph-name="uniFB90" unicode="&#x6a9;" horiz-adv-x="578" arabic-form="initial" 
d="M356 429q192 -88 192 -223q0 -95 -71.5 -150.5t-194.5 -55.5h-282q-10 0 -10 11v94q0 10 10 10h290q66 0 107 23.5t41 60.5t-31.5 67t-107.5 64l-245 111v77l360 286l70 -84l-286 -219z" />
    <glyph glyph-name="uniFB91" unicode="&#x6a9;" horiz-adv-x="645" arabic-form="medial" 
d="M645 115q10 0 10 -10v-94q0 -11 -10 -11q-84 0 -160 62q-71 -62 -203 -62h-282q-10 0 -10 11v94q0 10 10 10h290q66 0 107 23.5t41 60.5t-31.5 67t-107.5 64l-245 111v77l360 286l70 -84l-286 -219l158 -72q192 -88 192 -223q0 -36 -11 -69q48 -22 108 -22z" />
    <glyph glyph-name="uniFB93" unicode="&#x6af;" horiz-adv-x="987" arabic-form="final" 
d="M582 772l-239 -196l-46 55l238 196zM987 115q10 0 10 -10v-94q0 -11 -10 -11q-90 0 -170 71q-73 -71 -213 -71h-306q-131 0 -199.5 62t-68.5 181q0 69 25 197l103 -17q-20 -103 -20 -160q0 -82 40.5 -115t141.5 -33h292q66 0 107 23.5t41 60.5t-31.5 67t-107.5 64
l-245 111v77l360 286l70 -84l-286 -219l158 -72q192 -88 192 -223q0 -30 -8 -60q55 -31 125 -31z" />
    <glyph glyph-name="uniFB94" unicode="&#x6af;" horiz-adv-x="728" arabic-form="initial" 
d="M374 772l-239 -196l-46 55l238 196zM506 429q192 -88 192 -223q0 -95 -71.5 -150.5t-194.5 -55.5h-432q-10 0 -10 11v94q0 10 10 10h440q66 0 107 23.5t41 60.5t-31.5 67t-107.5 64l-245 111v77l360 286l70 -84l-286 -219z" />
    <glyph glyph-name="uniFB95" unicode="&#x6af;" horiz-adv-x="805" arabic-form="medial" 
d="M384 772l-239 -196l-46 55l238 196zM805 115q10 0 10 -10v-94q0 -11 -10 -11q-84 0 -160 62q-71 -62 -203 -62h-442q-10 0 -10 11v94q0 10 10 10h450q66 0 107 23.5t41 60.5t-31.5 67t-107.5 64l-245 111v77l360 286l70 -84l-286 -219l158 -72q192 -88 192 -223
q0 -36 -11 -69q48 -22 108 -22z" />
    <glyph glyph-name="uniFB9F" unicode="&#x6ba;" horiz-adv-x="711" arabic-form="final" 
d="M711 115q10 0 10 -10v-94q0 -11 -10 -11q-75 0 -103 46q-14 -119 -89 -190t-197 -71q-282 0 -282 279q0 89 44 221l96 -26q-35 -100 -35 -180q0 -179 185 -179q175 0 175 199q0 17 -0.5 35t-3 42.5t-4 39t-6.5 50t-7 49.5t-9.5 61t-9.5 64h110q23 -147 31 -232l4 -33
q4 -32 28.5 -46t72.5 -14z" />
    <glyph glyph-name="uniFBA7" unicode="&#x6c1;" horiz-adv-x="628" arabic-form="final" 
d="M300 440q67 0 113 -41t93 -138q3 -6 14.5 -31t16.5 -35t16.5 -29t21 -27.5t24 -16t29.5 -7.5q10 0 10 -10v-94q0 -11 -10 -11q-71 0 -119 43t-88 144q-30 76 -54 107t-66 31q-39 0 -68.5 -34t-70.5 -127l-37 -84l-95 45l37 84q55 127 107.5 179t125.5 52z" />
    <glyph glyph-name="uniFBA8" unicode="&#x6c1;" horiz-adv-x="274" arabic-form="initial" 
d="M184 485q30 -205 30 -294q0 -87 -55.5 -139t-158.5 -52q-10 0 -10 11v94q0 10 10 10q58 0 81 20t23 64q0 81 -30 286h110zM173 -45l-49 -106h65l-20 -124h-133v122l52 108h85z" />
    <glyph glyph-name="uniFBA9" unicode="&#x6c1;" horiz-adv-x="725" arabic-form="medial" 
d="M725 115q10 0 10 -11v-94q0 -10 -10 -10h-113q-50 0 -73 -31t-23 -99v-45l-93 -100q-304 0 -304 314q-47 -39 -119 -39q-10 0 -10 11v94q0 10 10 10q119 0 119 82v173h110v-334q0 -190 187 -196v40q0 112 51 173.5t145 61.5h113zM694 -45l-49 -106h65l-20 -124h-133v122
l52 108h85z" />
    <glyph glyph-name="uniFBAB" unicode="&#x6be;" horiz-adv-x="624" arabic-form="final" 
d="M624 115q10 0 10 -11v-94q0 -10 -10 -10q-40 0 -88 16q37 -44 37 -84q0 -66 -47.5 -106.5t-126.5 -40.5q-85 0 -147 41.5t-95 117.5q-38 -27 -83 -64l-64 83q55 53 118 95q-4 27 -4 63q0 128 53.5 246t155.5 203h87q150 -131 150 -282q0 -93 -63 -159q50 -14 117 -14z
M233 143q0 -19 1 -28q35 15 63 23q163 48 163 147q0 107 -97 189q-57 -49 -93.5 -138t-36.5 -193zM394 -101q79 0 79 54q0 50 -53 112q-41 -20 -82 -32q-38 -11 -80 -30q22 -50 57.5 -77t78.5 -27z" />
    <glyph glyph-name="uniFBAC" unicode="&#x6be;" horiz-adv-x="761" arabic-form="initial" 
d="M238 680q225 0 354 -101t129 -280q0 -80 -48 -212l-107 -100q-135 0 -279 53q-125 -40 -287 -40q-10 2 -10 11v94q0 10 10 10q61 0 111 5q-67 62 -67 148q0 92 64.5 159.5t159.5 67.5t158 -63.5t63 -163.5q0 -81 -74 -153q69 -12 151 -12q44 102 44 190q0 124 -99.5 198
t-272.5 74v115zM265 379q-48 0 -79.5 -33t-31.5 -86q0 -47 28 -83.5t80 -54.5q116 32 116 134q0 55 -31 89t-82 34z" />
    <glyph glyph-name="uniFBAD" unicode="&#x6be;" horiz-adv-x="553" arabic-form="medial" 
d="M553 115q10 0 10 -11v-94q0 -10 -10 -10q-40 0 -88 16q37 -44 37 -84q0 -66 -47.5 -106.5t-126.5 -40.5q-100 0 -169.5 58t-93.5 159q-44 -2 -65 -2q-10 0 -10 11v94q0 10 10 10q36 0 53 1q2 134 57 253.5t152 200.5h87q150 -131 150 -282q0 -93 -63 -159q50 -14 117 -14
zM157 132v-7q117 17 174.5 58.5t57.5 101.5q0 108 -97 188q-59 -51 -97 -145t-38 -196zM323 -101q79 0 79 54q0 50 -54 113q-73 -36 -171 -53q21 -54 59.5 -84t86.5 -30z" />
    <glyph glyph-name="uniFBAF" unicode="&#x6d2;" horiz-adv-x="740" arabic-form="final" 
d="M740 115q10 0 10 -10v-94q0 -11 -10 -11h-498q-92 0 -92 -50t120 -50h359l-48 -115h-287q-254 0 -254 159q0 171 233 171h467z" />
    <glyph glyph-name="uniFBB1" unicode="&#x6d3;" horiz-adv-x="740" arabic-form="final" 
d="M441 229h-132q-48 0 -106 -17v87q38 13 56 16q-22 25 -22 57q0 44 31 74t86 30q30 0 74 -21v-84q-45 14 -72 14q-19 0 -32 -9t-13 -23q0 -34 63 -34h94zM740 115q10 0 10 -10v-94q0 -11 -10 -11h-498q-92 0 -92 -50t120 -50h359l-48 -115h-287q-254 0 -254 159
q0 171 233 171h467z" />
    <glyph glyph-name="uniFBFD" unicode="&#x6cc;" horiz-adv-x="676" arabic-form="final" 
d="M676 115q10 0 10 -10v-94q0 -11 -10 -11h-3q-41 -103 -136.5 -159t-229.5 -56q-125 0 -201 73t-76 206q0 89 44 221l96 -26q-35 -100 -35 -180q0 -179 198 -179q83 0 145.5 29t95.5 82q-11 2 -24.5 5.5t-34 8.5t-35.5 9v110q135 -29 196 -29z" />
    <glyph glyph-name="uniFBFE" unicode="&#x6cc;" horiz-adv-x="339" arabic-form="initial" 
d="M0 0q-10 0 -10 11v94q0 10 10 10h80q58 0 81 20t23 64q0 81 -30 286h110q30 -205 30 -294q0 -87 -55.5 -139t-158.5 -52h-80zM307 -153l-88 -88l-76 74l-75 -74l-89 88l88 88l76 -74l75 74z" />
    <glyph glyph-name="uniFBFF" unicode="&#x6cc;" horiz-adv-x="370" arabic-form="medial" 
d="M370 115q10 0 10 -10v-94q0 -11 -10 -11q-91 0 -180 75q-57 -75 -190 -75q-10 0 -10 11v94q0 10 10 10q90 0 119 48q17 28 21.5 73.5t4.5 133.5h102q0 -142 -19 -215q70 -40 142 -40zM166 -140l75 74l89 -88l-88 -88l-76 74l-75 -74l-89 88l88 88z" />
    <glyph glyph-name="uniFC02" unicode="&#xfc02;" horiz-adv-x="546" arabic-form="isolated" 
d="M496 601h-132q-48 0 -106 -17v87q38 13 56 16q-22 25 -22 57q0 44 31 74t86 30q31 0 74 -21v-84q-45 14 -72 14q-19 0 -32 -9t-13 -23q0 -34 63 -34h94zM376 295q0 -49 30.5 -88t93.5 -84q9 -5 16 -11l-60 -104q-80 7 -137 69q-48 17 -97 17q-82 0 -82 -79q0 -85 30 -290
h-110q-30 205 -30 298q0 80 52.5 133.5t130.5 53.5q31 0 86 -11q-33 54 -33 115q0 59 34.5 116.5t96.5 101.5h10l69 -70q-100 -88 -100 -167z" />
    <glyph glyph-name="uniFC03" unicode="&#xfc03;" horiz-adv-x="868" arabic-form="isolated" 
d="M756 626h94l-27 -90h-132q-48 0 -106 -17v87q38 13 56 16q-22 25 -22 57q0 44 31 74t86 30q30 0 74 -21v-84q-45 14 -72 14q-19 0 -32 -9t-13 -23q0 -34 63 -34zM663 485h110q30 -205 30 -294q0 -140 -125 -179q-39 -108 -136.5 -167.5t-234.5 -59.5q-125 0 -201 73
t-76 206q0 89 44 221l96 -26q-35 -100 -35 -180q0 -179 198 -179q78 0 139 26t95 74h-156l19 115h159q58 0 81 20t23 64q0 81 -30 286z" />
    <glyph glyph-name="uniFC04" unicode="&#xfc04;" horiz-adv-x="868" arabic-form="isolated" 
d="M756 626h94l-27 -90h-132q-48 0 -106 -17v87q38 13 56 16q-22 25 -22 57q0 44 31 74t86 30q30 0 74 -21v-84q-45 14 -72 14q-19 0 -32 -9t-13 -23q0 -34 63 -34zM663 485h110q30 -205 30 -294q0 -140 -125 -179q-39 -108 -136.5 -167.5t-234.5 -59.5q-125 0 -201 73
t-76 206q0 89 44 221l96 -26q-35 -100 -35 -180q0 -179 198 -179q78 0 139 26t95 74h-156l19 115h159q58 0 81 20t23 64q0 81 -30 286zM408 -335l75 74l89 -88l-88 -88l-76 74l-75 -74l-89 88l88 88z" />
    <glyph glyph-name="uniFC08" unicode="&#xfc08;" horiz-adv-x="546" arabic-form="isolated" 
d="M500 123q9 -5 16 -11l-60 -104q-80 7 -137 69q-48 17 -97 17q-82 0 -82 -79q0 -85 30 -290h-110q-30 205 -30 298q0 80 52.5 133.5t130.5 53.5q31 0 86 -11q-33 54 -33 115q0 59 34.5 116.5t96.5 101.5h10l69 -70q-100 -88 -100 -167q0 -49 30.5 -88t93.5 -84zM235 -153
l88 88l89 -88l-88 -88z" />
    <glyph glyph-name="uniFC09" unicode="&#xfc09;" horiz-adv-x="865" arabic-form="isolated" 
d="M803 191q0 -140 -125 -179q-39 -108 -136.5 -167.5t-234.5 -59.5q-125 0 -201 73t-76 206q0 89 44 221l96 -26q-35 -100 -35 -180q0 -179 198 -179q78 0 139 26t95 74h-156l19 115h159q58 0 81 20t23 64q0 81 -30 286h110q30 -205 30 -294zM726 -65l89 -88l-88 -88
l-89 88z" />
    <glyph glyph-name="uniFC0A" unicode="&#xfc0a;" horiz-adv-x="865" arabic-form="isolated" 
d="M803 191q0 -140 -125 -179q-39 -108 -136.5 -167.5t-234.5 -59.5q-125 0 -201 73t-76 206q0 89 44 221l96 -26q-35 -100 -35 -180q0 -179 198 -179q78 0 139 26t95 74h-156l19 115h159q58 0 81 20t23 64q0 81 -30 286h110q30 -205 30 -294zM726 -65l89 -88l-88 -88
l-89 88zM408 -335l75 74l89 -88l-88 -88l-76 74l-75 -74l-89 88l88 88z" />
    <glyph glyph-name="uniFC0E" unicode="&#xfc0e;" horiz-adv-x="546" arabic-form="isolated" 
d="M408 653l-75 -74l-89 88l88 88l76 -74l75 74l89 -88l-88 -88zM376 295q0 -49 30.5 -88t93.5 -84q9 -5 16 -11l-60 -104q-80 7 -137 69q-48 17 -97 17q-82 0 -82 -79q0 -85 30 -290h-110q-30 205 -30 298q0 80 52.5 133.5t130.5 53.5q31 0 86 -11q-33 54 -33 115
q0 59 34.5 116.5t96.5 101.5h10l69 -70q-100 -88 -100 -167z" />
    <glyph glyph-name="uniFC0F" unicode="&#xfc0f;" horiz-adv-x="900" arabic-form="isolated" 
d="M716 623l-75 -74l-89 88l88 88l76 -74l75 74l89 -88l-88 -88zM663 485h110q30 -205 30 -294q0 -140 -125 -179q-39 -108 -136.5 -167.5t-234.5 -59.5q-125 0 -201 73t-76 206q0 89 44 221l96 -26q-35 -100 -35 -180q0 -179 198 -179q78 0 139 26t95 74h-156l19 115h159
q58 0 81 20t23 64q0 81 -30 286z" />
    <glyph glyph-name="uniFC10" unicode="&#xfc10;" horiz-adv-x="900" arabic-form="isolated" 
d="M716 623l-75 -74l-89 88l88 88l76 -74l75 74l89 -88l-88 -88zM663 485h110q30 -205 30 -294q0 -140 -125 -179q-39 -108 -136.5 -167.5t-234.5 -59.5q-125 0 -201 73t-76 206q0 89 44 221l96 -26q-35 -100 -35 -180q0 -179 198 -179q78 0 139 26t95 74h-156l19 115h159
q58 0 81 20t23 64q0 81 -30 286zM408 -335l75 74l89 -88l-88 -88l-76 74l-75 -74l-89 88l88 88z" />
    <glyph glyph-name="uniFC12" unicode="&#xfc12;" horiz-adv-x="546" arabic-form="isolated" 
d="M481 806l-70 -70l-71 70l70 71zM411 668l-80 -79l-89 88l88 89l81 -80l80 80l89 -89l-88 -88zM376 295q0 -49 30.5 -88t93.5 -84q9 -5 16 -11l-60 -104q-80 7 -137 69q-48 17 -97 17q-82 0 -82 -79q0 -85 30 -290h-110q-30 205 -30 298q0 80 52.5 133.5t130.5 53.5
q31 0 86 -11q-33 54 -33 115q0 59 34.5 116.5t96.5 101.5h10l69 -70q-100 -88 -100 -167z" />
    <glyph glyph-name="uniFC13" unicode="&#xfc13;" horiz-adv-x="910" arabic-form="isolated" 
d="M791 754l-70 -70l-71 70l70 71zM721 616l-80 -79l-89 88l88 89l81 -80l80 80l89 -89l-88 -88zM663 485h110q30 -205 30 -294q0 -140 -125 -179q-39 -108 -136.5 -167.5t-234.5 -59.5q-125 0 -201 73t-76 206q0 89 44 221l96 -26q-35 -100 -35 -180q0 -179 198 -179
q78 0 139 26t95 74h-156l19 115h159q58 0 81 20t23 64q0 81 -30 286z" />
    <glyph glyph-name="uniFC14" unicode="&#xfc14;" horiz-adv-x="910" arabic-form="isolated" 
d="M791 754l-70 -70l-71 70l70 71zM721 616l-80 -79l-89 88l88 89l81 -80l80 80l89 -89l-88 -88zM663 485h110q30 -205 30 -294q0 -140 -125 -179q-39 -108 -136.5 -167.5t-234.5 -59.5q-125 0 -201 73t-76 206q0 89 44 221l96 -26q-35 -100 -35 -180q0 -179 198 -179
q78 0 139 26t95 74h-156l19 115h159q58 0 81 20t23 64q0 81 -30 286zM408 -335l75 74l89 -88l-88 -88l-76 74l-75 -74l-89 88l88 88z" />
    <glyph glyph-name="uniFC31" unicode="&#xfc31;" horiz-adv-x="862" arabic-form="isolated" 
d="M695 740l-88 -88l-89 88l88 88zM822 220q0 -144 -141 -197q-37 -113 -135 -175.5t-239 -62.5q-125 0 -201 73t-76 206q0 89 44 221l96 -26q-35 -100 -35 -180q0 -179 198 -179q164 0 235 101q-10 -1 -32 -1h-135l19 115h129q82 0 119 21t43 69q-53 -25 -109 -25
q-97 0 -150.5 51t-53.5 143q0 94 58.5 156.5t146.5 62.5q92 0 149.5 -61t63.5 -170q6 -102 6 -142zM615 275q51 0 93 14q0 11 -2 32.5t-2 31.5q-4 63 -33 94t-76 31q-37 0 -62 -28.5t-25 -71.5q0 -49 28 -76t79 -27z" />
    <glyph glyph-name="uniFC32" unicode="&#xfc32;" horiz-adv-x="862" arabic-form="isolated" 
d="M685 740l-88 -88l-89 88l88 88zM822 220q0 -144 -141 -197q-37 -113 -135 -175.5t-239 -62.5q-125 0 -201 73t-76 206q0 89 44 221l96 -26q-35 -100 -35 -180q0 -179 198 -179q164 0 235 101q-10 -1 -32 -1h-135l19 115h129q82 0 119 21t43 69q-53 -25 -109 -25
q-97 0 -150.5 51t-53.5 143q0 94 58.5 156.5t146.5 62.5q92 0 149.5 -61t63.5 -170q6 -102 6 -142zM615 275q51 0 93 14q0 11 -2 32.5t-2 31.5q-4 63 -33 94t-76 31q-37 0 -62 -28.5t-25 -71.5q0 -49 28 -76t79 -27zM378 -335l75 74l89 -88l-88 -88l-76 74l-75 -74l-89 88
l88 88z" />
    <glyph glyph-name="uniFC35" unicode="&#xfc35;" horiz-adv-x="862" arabic-form="isolated" 
d="M607 726l-75 -74l-89 88l88 88l76 -74l75 74l89 -88l-88 -88zM822 220q0 -144 -141 -197q-37 -113 -135 -175.5t-239 -62.5q-125 0 -201 73t-76 206q0 89 44 221l96 -26q-35 -100 -35 -180q0 -179 198 -179q164 0 235 101q-10 -1 -32 -1h-135l19 115h129q82 0 119 21
t43 69q-53 -25 -109 -25q-97 0 -150.5 51t-53.5 143q0 94 58.5 156.5t146.5 62.5q92 0 149.5 -61t63.5 -170q6 -102 6 -142zM615 275q51 0 93 14q0 11 -2 32.5t-2 31.5q-4 63 -33 94t-76 31q-37 0 -62 -28.5t-25 -71.5q0 -49 28 -76t79 -27z" />
    <glyph glyph-name="uniFC36" unicode="&#xfc36;" horiz-adv-x="862" arabic-form="isolated" 
d="M607 726l-75 -74l-89 88l88 88l76 -74l75 74l89 -88l-88 -88zM822 220q0 -144 -141 -197q-37 -113 -135 -175.5t-239 -62.5q-125 0 -201 73t-76 206q0 89 44 221l96 -26q-35 -100 -35 -180q0 -179 198 -179q164 0 235 101q-10 -1 -32 -1h-135l19 115h129q82 0 119 21
t43 69q-53 -25 -109 -25q-97 0 -150.5 51t-53.5 143q0 94 58.5 156.5t146.5 62.5q92 0 149.5 -61t63.5 -170q6 -102 6 -142zM615 275q51 0 93 14q0 11 -2 32.5t-2 31.5q-4 63 -33 94t-76 31q-37 0 -62 -28.5t-25 -71.5q0 -49 28 -76t79 -27zM398 -335l75 74l89 -88l-88 -88
l-76 74l-75 -74l-89 88l88 88z" />
    <glyph glyph-name="uniFC3D" unicode="&#xfc3d;" horiz-adv-x="1425" arabic-form="isolated" 
d="M1203 429q192 -88 192 -223q0 -95 -71.5 -150.5t-194.5 -55.5h-245q-102 0 -163 54.5t-61 145.5q0 83 20 177q-119 -9 -187.5 -46t-68.5 -81q0 -22 15 -39t61 -46l37 -24q106 -69 106 -160q0 -85 -83 -140.5t-213 -55.5q-163 0 -240 69t-77 210q0 89 44 221l96 -26
q-35 -100 -35 -180q0 -96 56 -138t189 -42q66 0 114 19t48 49q0 27 -77 79l-45 31q-97 67 -97 163q0 93 93 165t285 90l90 -68q-33 -141 -33 -199q0 -52 33.5 -82.5t93.5 -30.5h252q66 0 107 23.5t41 60.5t-31.5 67t-107.5 64l-245 111v77l360 286l70 -84l-286 -219z" />
    <glyph glyph-name="uniFC3E" unicode="&#xfc3e;" horiz-adv-x="1425" arabic-form="isolated" 
d="M1203 429q192 -88 192 -223q0 -95 -71.5 -150.5t-194.5 -55.5h-245q-102 0 -163 54.5t-61 145.5q0 83 20 177q-119 -9 -187.5 -46t-68.5 -81q0 -22 15 -39t61 -46l37 -24q106 -69 106 -160q0 -85 -83 -140.5t-213 -55.5q-163 0 -240 69t-77 210q0 89 44 221l96 -26
q-35 -100 -35 -180q0 -96 56 -138t189 -42q66 0 114 19t48 49q0 27 -77 79l-45 31q-97 67 -97 163q0 93 93 165t285 90l90 -68q-33 -141 -33 -199q0 -52 33.5 -82.5t93.5 -30.5h252q66 0 107 23.5t41 60.5t-31.5 67t-107.5 64l-245 111v77l360 286l70 -84l-286 -219z
M408 -335l75 74l89 -88l-88 -88l-76 74l-75 -74l-89 88l88 88z" />
    <glyph glyph-name="uniFC42" unicode="&#xfc42;" horiz-adv-x="546" arabic-form="isolated" 
d="M405 184q68 -27 131 -72l-60 -104q-80 7 -137 69q-48 17 -97 17q-82 0 -82 -79q0 -85 30 -290h-110q-30 205 -30 298q0 80 52.5 133.5t130.5 53.5q25 0 71 -8q-9 49 -9 95v428h110v-541z" />
    <glyph glyph-name="uniFC44" unicode="&#xfc44;" horiz-adv-x="853" arabic-form="isolated" 
d="M663 725h110v-534q0 -114 -90 -163q-36 -115 -134.5 -179t-241.5 -64q-125 0 -201 73t-76 206q0 89 44 221l96 -26q-35 -100 -35 -180q0 -179 198 -179q78 0 139 26t95 74h-8h-148l19 115h129q58 0 81 20t23 64v526zM388 -335l75 74l89 -88l-88 -88l-76 74l-75 -74
l-89 88l88 88z" />
    <glyph glyph-name="uniFC4E" unicode="&#xfc4e;" horiz-adv-x="546" arabic-form="isolated" 
d="M499 685l-88 -88l-89 88l88 88zM500 123q9 -5 16 -11l-60 -104q-80 7 -137 69q-48 17 -97 17q-82 0 -82 -79q0 -85 30 -290h-110q-30 205 -30 298q0 80 52.5 133.5t130.5 53.5q31 0 86 -11q-33 54 -33 115q0 59 34.5 116.5t96.5 101.5h10l69 -70q-100 -88 -100 -167
q0 -49 30.5 -88t93.5 -84z" />
    <glyph glyph-name="uniFC4F" unicode="&#xfc4f;" horiz-adv-x="853" arabic-form="isolated" 
d="M800 631l-88 -88l-89 88l88 88zM803 191q0 -140 -125 -179q-39 -108 -136.5 -167.5t-234.5 -59.5q-125 0 -201 73t-76 206q0 89 44 221l96 -26q-35 -100 -35 -180q0 -179 198 -179q78 0 139 26t95 74h-156l19 115h159q58 0 81 20t23 64q0 81 -30 286h110q30 -205 30 -294
z" />
    <glyph glyph-name="uniFC50" unicode="&#xfc50;" horiz-adv-x="853" arabic-form="isolated" 
d="M800 631l-88 -88l-89 88l88 88zM803 191q0 -140 -125 -179q-39 -108 -136.5 -167.5t-234.5 -59.5q-125 0 -201 73t-76 206q0 89 44 221l96 -26q-35 -100 -35 -180q0 -179 198 -179q78 0 139 26t95 74h-156l19 115h159q58 0 81 20t23 64q0 81 -30 286h110q30 -205 30 -294
zM408 -335l75 74l89 -88l-88 -88l-76 74l-75 -74l-89 88l88 88z" />
    <glyph glyph-name="uniFC58" unicode="&#xfc58;" horiz-adv-x="546" arabic-form="isolated" 
d="M222 94q-82 0 -82 -79q0 -85 30 -290h-110q-30 205 -30 298q0 80 52.5 133.5t130.5 53.5q31 0 86 -11q-33 54 -33 115q0 59 34.5 116.5t96.5 101.5h10l69 -70q-100 -88 -100 -167q0 -49 30.5 -88t93.5 -84q9 -5 16 -11l-60 -104q-80 7 -137 69q-48 17 -97 17zM519 -146
l-88 -88l-76 74l-75 -74l-89 88l88 88l76 -74l75 74z" />
    <glyph glyph-name="uniFC64" unicode="&#xfc64;" horiz-adv-x="599" arabic-form="final" 
d="M556 549h-132q-48 0 -106 -17v87q38 13 56 16q-22 25 -22 57q0 44 31 74t86 30q31 0 74 -21v-84q-45 14 -72 14q-19 0 -32 -9t-13 -23q0 -34 63 -34h94zM599 115q10 0 10 -10v-94q0 -11 -10 -11q-187 0 -187 182q0 79 16 159q-96 -48 -191 -63q12 -130 12 -256
q0 -111 -72.5 -174t-186.5 -63v105q66 0 109.5 36.5t43.5 103.5q0 132 -25 328l10 12q92 8 162 29.5t146 59.5l100 -55q-21 -92 -21 -172q0 -117 84 -117z" />
    <glyph glyph-name="uniFC65" unicode="&#xfc65;" horiz-adv-x="599" arabic-form="final" 
d="M576 549h-132q-48 0 -106 -17v87q38 13 56 16q-22 25 -22 57q0 44 31 74t86 30q31 0 74 -21v-84q-45 14 -72 14q-19 0 -32 -9t-13 -23q0 -34 63 -34h94zM230 544l-88 -88l-89 88l88 88zM599 115q10 0 10 -10v-94q0 -11 -10 -11q-187 0 -187 182q0 79 16 159
q-96 -48 -191 -63q12 -130 12 -256q0 -111 -72.5 -174t-186.5 -63v105q66 0 109.5 36.5t43.5 103.5q0 132 -25 328l10 12q92 8 162 29.5t146 59.5l100 -55q-21 -92 -21 -172q0 -117 84 -117z" />
    <glyph glyph-name="uniFC67" unicode="&#xfc67;" horiz-adv-x="969" arabic-form="final" 
d="M881 547h-132q-48 0 -106 -17v87q38 13 56 16q-22 25 -22 57q0 44 31 74t86 30q30 0 74 -21v-84q-45 14 -72 14q-19 0 -32 -9t-13 -23q0 -34 63 -34h94zM405 470l-88 -88l-89 88l88 88zM964 115q10 0 10 -10v-94q0 -11 -10 -11q-187 0 -187 182q0 79 16 159
q-91 -46 -190 -63q12 -96 12 -179q0 -139 -78.5 -226.5t-214.5 -87.5q-282 0 -282 279q0 89 44 221l96 -26q-35 -100 -35 -180q0 -179 185 -179q175 0 175 199q0 66 -22 259l10 12q92 8 162 29.5t146 59.5l100 -55q-21 -92 -21 -172q0 -117 84 -117z" />
    <glyph glyph-name="uniFC68" unicode="&#xfc68;" horiz-adv-x="889" arabic-form="final" 
d="M799 582h-132q-48 0 -106 -17v87q38 13 56 16q-22 25 -22 57q0 44 31 74t86 30q30 0 74 -21v-84q-45 14 -72 14q-19 0 -32 -9t-13 -23q0 -34 63 -34h94zM889 115q10 0 10 -10v-94q0 -11 -10 -11q-104 0 -166.5 54.5t-62.5 145.5q0 83 20 177q-119 -9 -187.5 -46
t-68.5 -81q0 -22 15 -39t61 -46l37 -24q106 -69 106 -160q0 -85 -83 -140.5t-213 -55.5q-163 0 -240 69t-77 210q0 89 44 221l96 -26q-35 -100 -35 -180q0 -96 56 -138t189 -42q66 0 114 19t48 49q0 27 -77 79l-45 31q-97 67 -97 163q0 93 93 165t285 90l90 -55
q-33 -141 -33 -212q0 -52 34.5 -82.5t96.5 -30.5z" />
    <glyph glyph-name="uniFC69" unicode="&#xfc69;" horiz-adv-x="889" arabic-form="final" 
d="M799 582h-132q-48 0 -106 -17v87q38 13 56 16q-22 25 -22 57q0 44 31 74t86 30q30 0 74 -21v-84q-45 14 -72 14q-19 0 -32 -9t-13 -23q0 -34 63 -34h94zM889 115q10 0 10 -10v-94q0 -11 -10 -11q-104 0 -166.5 54.5t-62.5 145.5q0 83 20 177q-119 -9 -187.5 -46
t-68.5 -81q0 -22 15 -39t61 -46l37 -24q106 -69 106 -160q0 -85 -83 -140.5t-213 -55.5q-163 0 -240 69t-77 210q0 89 44 221l96 -26q-35 -100 -35 -180q0 -96 56 -138t189 -42q66 0 114 19t48 49q0 27 -77 79l-45 31q-97 67 -97 163q0 93 93 165t285 90l90 -55
q-33 -141 -33 -212q0 -52 34.5 -82.5t96.5 -30.5zM408 -335l75 74l89 -88l-88 -88l-76 74l-75 -74l-89 88l88 88z" />
    <glyph glyph-name="uniFC6A" unicode="&#xfc6a;" horiz-adv-x="599" arabic-form="final" 
d="M599 115q10 0 10 -10v-94q0 -11 -10 -11q-187 0 -187 182q0 79 16 159q-96 -48 -191 -63q12 -130 12 -256q0 -111 -72.5 -174t-186.5 -63v105q66 0 109.5 36.5t43.5 103.5q0 132 -25 328l10 12q92 8 162 29.5t146 59.5l100 -55q-21 -92 -21 -172q0 -117 84 -117z
M301 -153l88 88l89 -88l-88 -88z" />
    <glyph glyph-name="uniFC6B" unicode="&#xfc6b;" horiz-adv-x="599" arabic-form="final" 
d="M230 544l-88 -88l-89 88l88 88zM599 115q10 0 10 -10v-94q0 -11 -10 -11q-187 0 -187 182q0 79 16 159q-96 -48 -191 -63q12 -130 12 -256q0 -111 -72.5 -174t-186.5 -63v105q66 0 109.5 36.5t43.5 103.5q0 132 -25 328l10 12q92 8 162 29.5t146 59.5l100 -55
q-21 -92 -21 -172q0 -117 84 -117zM301 -153l88 88l89 -88l-88 -88z" />
    <glyph glyph-name="uniFC6D" unicode="&#xfc6d;" horiz-adv-x="969" arabic-form="final" 
d="M405 470l-88 -88l-89 88l88 88zM964 115q10 0 10 -10v-94q0 -11 -10 -11q-187 0 -187 182q0 79 16 159q-91 -46 -190 -63q12 -96 12 -179q0 -139 -78.5 -226.5t-214.5 -87.5q-282 0 -282 279q0 89 44 221l96 -26q-35 -100 -35 -180q0 -179 185 -179q175 0 175 199
q0 66 -22 259l10 12q92 8 162 29.5t146 59.5l100 -55q-21 -92 -21 -172q0 -117 84 -117zM648 -153l88 88l89 -88l-88 -88z" />
    <glyph glyph-name="uniFC6E" unicode="&#xfc6e;" horiz-adv-x="889" arabic-form="final" 
d="M889 115q10 0 10 -10v-94q0 -11 -10 -11q-104 0 -166.5 54.5t-62.5 145.5q0 83 20 177q-119 -9 -187.5 -46t-68.5 -81q0 -22 15 -39t61 -46l37 -24q106 -69 106 -160q0 -85 -83 -140.5t-213 -55.5q-163 0 -240 69t-77 210q0 89 44 221l96 -26q-35 -100 -35 -180
q0 -96 56 -138t189 -42q66 0 114 19t48 49q0 27 -77 79l-45 31q-97 67 -97 163q0 93 93 165t285 90l90 -55q-33 -141 -33 -212q0 -52 34.5 -82.5t96.5 -30.5zM676 -153l88 88l89 -88l-88 -88z" />
    <glyph glyph-name="uniFC6F" unicode="&#xfc6f;" horiz-adv-x="889" arabic-form="final" 
d="M889 115q10 0 10 -10v-94q0 -11 -10 -11q-104 0 -166.5 54.5t-62.5 145.5q0 83 20 177q-119 -9 -187.5 -46t-68.5 -81q0 -22 15 -39t61 -46l37 -24q106 -69 106 -160q0 -85 -83 -140.5t-213 -55.5q-163 0 -240 69t-77 210q0 89 44 221l96 -26q-35 -100 -35 -180
q0 -96 56 -138t189 -42q66 0 114 19t48 49q0 27 -77 79l-45 31q-97 67 -97 163q0 93 93 165t285 90l90 -55q-33 -141 -33 -212q0 -52 34.5 -82.5t96.5 -30.5zM676 -153l88 88l89 -88l-88 -88zM408 -335l75 74l89 -88l-88 -88l-76 74l-75 -74l-89 88l88 88z" />
    <glyph glyph-name="uniFC70" unicode="&#xfc70;" horiz-adv-x="599" arabic-form="final" 
d="M433 611l-75 -74l-89 88l88 88l76 -74l75 74l89 -88l-88 -88zM599 115q10 0 10 -10v-94q0 -11 -10 -11q-187 0 -187 182q0 79 16 159q-96 -48 -191 -63q12 -130 12 -256q0 -111 -72.5 -174t-186.5 -63v105q66 0 109.5 36.5t43.5 103.5q0 132 -25 328l10 12q92 8 162 29.5
t146 59.5l100 -55q-21 -92 -21 -172q0 -117 84 -117z" />
    <glyph glyph-name="uniFC71" unicode="&#xfc71;" horiz-adv-x="599" arabic-form="final" 
d="M453 611l-75 -74l-89 88l88 88l76 -74l75 74l89 -88l-88 -88zM230 544l-88 -88l-89 88l88 88zM599 115q10 0 10 -10v-94q0 -11 -10 -11q-187 0 -187 182q0 79 16 159q-96 -48 -191 -63q12 -130 12 -256q0 -111 -72.5 -174t-186.5 -63v105q66 0 109.5 36.5t43.5 103.5
q0 132 -25 328l10 12q92 8 162 29.5t146 59.5l100 -55q-21 -92 -21 -172q0 -117 84 -117z" />
    <glyph glyph-name="uniFC73" unicode="&#xfc73;" horiz-adv-x="969" arabic-form="final" 
d="M722 612l-75 -74l-89 88l88 88l76 -74l75 74l89 -88l-88 -88zM405 470l-88 -88l-89 88l88 88zM964 115q10 0 10 -10v-94q0 -11 -10 -11q-187 0 -187 182q0 79 16 159q-91 -46 -190 -63q12 -96 12 -179q0 -139 -78.5 -226.5t-214.5 -87.5q-282 0 -282 279q0 89 44 221
l96 -26q-35 -100 -35 -180q0 -179 185 -179q175 0 175 199q0 66 -22 259l10 12q92 8 162 29.5t146 59.5l100 -55q-21 -92 -21 -172q0 -117 84 -117z" />
    <glyph glyph-name="uniFC74" unicode="&#xfc74;" horiz-adv-x="889" arabic-form="final" 
d="M683 649l-75 -74l-89 88l88 88l76 -74l75 74l89 -88l-88 -88zM889 115q10 0 10 -10v-94q0 -11 -10 -11q-104 0 -166.5 54.5t-62.5 145.5q0 83 20 177q-119 -9 -187.5 -46t-68.5 -81q0 -22 15 -39t61 -46l37 -24q106 -69 106 -160q0 -85 -83 -140.5t-213 -55.5
q-163 0 -240 69t-77 210q0 89 44 221l96 -26q-35 -100 -35 -180q0 -96 56 -138t189 -42q66 0 114 19t48 49q0 27 -77 79l-45 31q-97 67 -97 163q0 93 93 165t285 90l90 -55q-33 -141 -33 -212q0 -52 34.5 -82.5t96.5 -30.5z" />
    <glyph glyph-name="uniFC75" unicode="&#xfc75;" horiz-adv-x="889" arabic-form="final" 
d="M683 649l-75 -74l-89 88l88 88l76 -74l75 74l89 -88l-88 -88zM889 115q10 0 10 -10v-94q0 -11 -10 -11q-104 0 -166.5 54.5t-62.5 145.5q0 83 20 177q-119 -9 -187.5 -46t-68.5 -81q0 -22 15 -39t61 -46l37 -24q106 -69 106 -160q0 -85 -83 -140.5t-213 -55.5
q-163 0 -240 69t-77 210q0 89 44 221l96 -26q-35 -100 -35 -180q0 -96 56 -138t189 -42q66 0 114 19t48 49q0 27 -77 79l-45 31q-97 67 -97 163q0 93 93 165t285 90l90 -55q-33 -141 -33 -212q0 -52 34.5 -82.5t96.5 -30.5zM409 -335l75 74l89 -88l-88 -88l-76 74l-75 -74
l-89 88l88 88z" />
    <glyph glyph-name="uniFC76" unicode="&#xfc76;" horiz-adv-x="599" arabic-form="final" 
d="M501 755l-70 -70l-71 70l70 71zM431 617l-80 -79l-89 88l88 89l81 -80l80 80l89 -89l-88 -88zM599 115q10 0 10 -10v-94q0 -11 -10 -11q-187 0 -187 182q0 79 16 159q-96 -48 -191 -63q12 -130 12 -256q0 -111 -72.5 -174t-186.5 -63v105q66 0 109.5 36.5t43.5 103.5
q0 132 -25 328l10 12q92 8 162 29.5t146 59.5l100 -55q-21 -92 -21 -172q0 -117 84 -117z" />
    <glyph glyph-name="uniFC77" unicode="&#xfc77;" horiz-adv-x="599" arabic-form="final" 
d="M509 755l-70 -70l-71 70l70 71zM439 617l-80 -79l-89 88l88 89l81 -80l80 80l89 -89l-88 -88zM230 544l-88 -88l-89 88l88 88zM599 115q10 0 10 -10v-94q0 -11 -10 -11q-187 0 -187 182q0 79 16 159q-96 -48 -191 -63q12 -130 12 -256q0 -111 -72.5 -174t-186.5 -63v105
q66 0 109.5 36.5t43.5 103.5q0 132 -25 328l10 12q92 8 162 29.5t146 59.5l100 -55q-21 -92 -21 -172q0 -117 84 -117z" />
    <glyph glyph-name="uniFC79" unicode="&#xfc79;" horiz-adv-x="969" arabic-form="final" 
d="M790 757l-70 -70l-71 70l70 71zM720 619l-80 -79l-89 88l88 89l81 -80l80 80l89 -89l-88 -88zM405 470l-88 -88l-89 88l88 88zM964 115q10 0 10 -10v-94q0 -11 -10 -11q-187 0 -187 182q0 79 16 159q-91 -46 -190 -63q12 -96 12 -179q0 -139 -78.5 -226.5t-214.5 -87.5
q-282 0 -282 279q0 89 44 221l96 -26q-35 -100 -35 -180q0 -179 185 -179q175 0 175 199q0 66 -22 259l10 12q92 8 162 29.5t146 59.5l100 -55q-21 -92 -21 -172q0 -117 84 -117z" />
    <glyph glyph-name="uniFC7A" unicode="&#xfc7a;" horiz-adv-x="889" arabic-form="final" 
d="M761 765l-70 -70l-71 70l70 71zM691 627l-80 -79l-89 88l88 89l81 -80l80 80l89 -89l-88 -88zM889 115q10 0 10 -10v-94q0 -11 -10 -11q-104 0 -166.5 54.5t-62.5 145.5q0 83 20 177q-119 -9 -187.5 -46t-68.5 -81q0 -22 15 -39t61 -46l37 -24q106 -69 106 -160
q0 -85 -83 -140.5t-213 -55.5q-163 0 -240 69t-77 210q0 89 44 221l96 -26q-35 -100 -35 -180q0 -96 56 -138t189 -42q66 0 114 19t48 49q0 27 -77 79l-45 31q-97 67 -97 163q0 93 93 165t285 90l90 -55q-33 -141 -33 -212q0 -52 34.5 -82.5t96.5 -30.5z" />
    <glyph glyph-name="uniFC7B" unicode="&#xfc7b;" horiz-adv-x="889" arabic-form="final" 
d="M761 765l-70 -70l-71 70l70 71zM691 627l-80 -79l-89 88l88 89l81 -80l80 80l89 -89l-88 -88zM889 115q10 0 10 -10v-94q0 -11 -10 -11q-104 0 -166.5 54.5t-62.5 145.5q0 83 20 177q-119 -9 -187.5 -46t-68.5 -81q0 -22 15 -39t61 -46l37 -24q106 -69 106 -160
q0 -85 -83 -140.5t-213 -55.5q-163 0 -240 69t-77 210q0 89 44 221l96 -26q-35 -100 -35 -180q0 -96 56 -138t189 -42q66 0 114 19t48 49q0 27 -77 79l-45 31q-97 67 -97 163q0 93 93 165t285 90l90 -55q-33 -141 -33 -212q0 -52 34.5 -82.5t96.5 -30.5zM408 -335l75 74
l89 -88l-88 -88l-76 74l-75 -74l-89 88l88 88z" />
    <glyph glyph-name="uniFC83" unicode="&#xfc83;" horiz-adv-x="1505" arabic-form="final" 
d="M1505 115q10 0 10 -10v-94q0 -11 -10 -11q-88 0 -167 68q-71 -68 -209 -68h-245q-102 0 -163 54.5t-61 145.5q0 83 20 177q-119 -9 -187.5 -46t-68.5 -81q0 -22 15 -39t61 -46l37 -24q106 -69 106 -160q0 -85 -83 -140.5t-213 -55.5q-163 0 -240 69t-77 210q0 89 44 221
l96 -26q-35 -100 -35 -180q0 -96 56 -138t189 -42q66 0 114 19t48 49q0 27 -77 79l-45 31q-97 67 -97 163q0 93 93 165t285 90l90 -68q-33 -141 -33 -199q0 -52 33.5 -82.5t93.5 -30.5h252q66 0 107 23.5t41 60.5t-31.5 67t-107.5 64l-245 111v77l360 286l70 -84l-286 -219
l158 -72q192 -88 192 -223q0 -36 -10 -63q55 -28 120 -28z" />
    <glyph glyph-name="uniFC84" unicode="&#xfc84;" horiz-adv-x="1505" arabic-form="final" 
d="M1505 115q10 0 10 -10v-94q0 -11 -10 -11q-88 0 -167 68q-71 -68 -209 -68h-245q-102 0 -163 54.5t-61 145.5q0 83 20 177q-119 -9 -187.5 -46t-68.5 -81q0 -22 15 -39t61 -46l37 -24q106 -69 106 -160q0 -85 -83 -140.5t-213 -55.5q-163 0 -240 69t-77 210q0 89 44 221
l96 -26q-35 -100 -35 -180q0 -96 56 -138t189 -42q66 0 114 19t48 49q0 27 -77 79l-45 31q-97 67 -97 163q0 93 93 165t285 90l90 -68q-33 -141 -33 -199q0 -52 33.5 -82.5t93.5 -30.5h252q66 0 107 23.5t41 60.5t-31.5 67t-107.5 64l-245 111v77l360 286l70 -84l-286 -219
l158 -72q192 -88 192 -223q0 -36 -10 -63q55 -28 120 -28zM408 -335l75 74l89 -88l-88 -88l-76 74l-75 -74l-89 88l88 88z" />
    <glyph glyph-name="uniFC87" unicode="&#xfc87;" horiz-adv-x="917" arabic-form="final" 
d="M917 115q10 0 10 -10v-94q0 -11 -10 -11q-111 0 -167 61q-36 -34 -72 -48q-39 -109 -136.5 -168.5t-234.5 -59.5q-125 0 -201 73t-76 206q0 89 44 221l96 -26q-35 -100 -35 -180q0 -179 198 -179q78 0 139 26t95 74h-116l19 115h129q67 0 108 30q-4 20 -4 46v534h110
v-526q0 -44 23 -64t81 -20zM388 -335l75 74l89 -88l-88 -88l-76 74l-75 -74l-89 88l88 88z" />
    <glyph glyph-name="uniFC8A" unicode="&#xfc8a;" horiz-adv-x="599" arabic-form="final" 
d="M532 627l-88 -88l-89 88l88 88zM599 115q10 0 10 -10v-94q0 -11 -10 -11q-187 0 -187 182q0 79 16 159q-96 -48 -191 -63q12 -130 12 -256q0 -111 -72.5 -174t-186.5 -63v105q66 0 109.5 36.5t43.5 103.5q0 132 -25 328l10 12q92 8 162 29.5t146 59.5l100 -55
q-21 -92 -21 -172q0 -117 84 -117z" />
    <glyph glyph-name="uniFC8B" unicode="&#xfc8b;" horiz-adv-x="599" arabic-form="final" 
d="M532 627l-88 -88l-89 88l88 88zM230 544l-88 -88l-89 88l88 88zM599 115q10 0 10 -10v-94q0 -11 -10 -11q-187 0 -187 182q0 79 16 159q-96 -48 -191 -63q12 -130 12 -256q0 -111 -72.5 -174t-186.5 -63v105q66 0 109.5 36.5t43.5 103.5q0 132 -25 328l10 12
q92 8 162 29.5t146 59.5l100 -55q-21 -92 -21 -172q0 -117 84 -117z" />
    <glyph glyph-name="uniFC8D" unicode="&#xfc8d;" horiz-adv-x="969" arabic-form="final" 
d="M896 652l-88 -88l-89 88l88 88zM405 470l-88 -88l-89 88l88 88zM964 115q10 0 10 -10v-94q0 -11 -10 -11q-187 0 -187 182q0 79 16 159q-91 -46 -190 -63q12 -96 12 -179q0 -139 -78.5 -226.5t-214.5 -87.5q-282 0 -282 279q0 89 44 221l96 -26q-35 -100 -35 -180
q0 -179 185 -179q175 0 175 199q0 66 -22 259l10 12q92 8 162 29.5t146 59.5l100 -55q-21 -92 -21 -172q0 -117 84 -117z" />
    <glyph glyph-name="uniFC8E" unicode="&#xfc8e;" horiz-adv-x="889" arabic-form="final" 
d="M786 680l-88 -88l-89 88l88 88zM889 115q10 0 10 -10v-94q0 -11 -10 -11q-104 0 -166.5 54.5t-62.5 145.5q0 83 20 177q-119 -9 -187.5 -46t-68.5 -81q0 -22 15 -39t61 -46l37 -24q106 -69 106 -160q0 -85 -83 -140.5t-213 -55.5q-163 0 -240 69t-77 210q0 89 44 221
l96 -26q-35 -100 -35 -180q0 -96 56 -138t189 -42q66 0 114 19t48 49q0 27 -77 79l-45 31q-97 67 -97 163q0 93 93 165t285 90l90 -55q-33 -141 -33 -212q0 -52 34.5 -82.5t96.5 -30.5z" />
    <glyph glyph-name="uniFC8F" unicode="&#xfc8f;" horiz-adv-x="889" arabic-form="final" 
d="M786 680l-88 -88l-89 88l88 88zM889 115q10 0 10 -10v-94q0 -11 -10 -11q-104 0 -166.5 54.5t-62.5 145.5q0 83 20 177q-119 -9 -187.5 -46t-68.5 -81q0 -22 15 -39t61 -46l37 -24q106 -69 106 -160q0 -85 -83 -140.5t-213 -55.5q-163 0 -240 69t-77 210q0 89 44 221
l96 -26q-35 -100 -35 -180q0 -96 56 -138t189 -42q66 0 114 19t48 49q0 27 -77 79l-45 31q-97 67 -97 163q0 93 93 165t285 90l90 -55q-33 -141 -33 -212q0 -52 34.5 -82.5t96.5 -30.5zM408 -335l75 74l89 -88l-88 -88l-76 74l-75 -74l-89 88l88 88z" />
    <glyph glyph-name="uniFC91" unicode="&#xfc91;" horiz-adv-x="599" arabic-form="final" 
d="M599 115q10 0 10 -10v-94q0 -11 -10 -11q-187 0 -187 182q0 79 16 159q-96 -48 -191 -63q12 -130 12 -256q0 -111 -72.5 -174t-186.5 -63v105q66 0 109.5 36.5t43.5 103.5q0 132 -25 328l10 12q92 8 162 29.5t146 59.5l100 -55q-21 -92 -21 -172q0 -117 84 -117z
M405 -132l75 74l89 -88l-88 -88l-76 74l-75 -74l-89 88l88 88z" />
    <glyph glyph-name="uniFC92" unicode="&#xfc92;" horiz-adv-x="599" arabic-form="final" 
d="M230 544l-88 -88l-89 88l88 88zM599 115q10 0 10 -10v-94q0 -11 -10 -11q-187 0 -187 182q0 79 16 159q-96 -48 -191 -63q12 -130 12 -256q0 -111 -72.5 -174t-186.5 -63v105q66 0 109.5 36.5t43.5 103.5q0 132 -25 328l10 12q92 8 162 29.5t146 59.5l100 -55
q-21 -92 -21 -172q0 -117 84 -117zM405 -132l75 74l89 -88l-88 -88l-76 74l-75 -74l-89 88l88 88z" />
    <glyph glyph-name="uniFC94" unicode="&#xfc94;" horiz-adv-x="969" arabic-form="final" 
d="M405 470l-88 -88l-89 88l88 88zM964 115q10 0 10 -10v-94q0 -11 -10 -11q-187 0 -187 182q0 79 16 159q-91 -46 -190 -63q12 -96 12 -179q0 -139 -78.5 -226.5t-214.5 -87.5q-282 0 -282 279q0 89 44 221l96 -26q-35 -100 -35 -180q0 -179 185 -179q175 0 175 199
q0 66 -22 259l10 12q92 8 162 29.5t146 59.5l100 -55q-21 -92 -21 -172q0 -117 84 -117zM770 -132l75 74l89 -88l-88 -88l-76 74l-75 -74l-89 88l88 88z" />
    <glyph glyph-name="uniFCCC" unicode="&#xfccc;" horiz-adv-x="310" arabic-form="initial" 
d="M340 11l-55 -100q-96 21 -154 71q-59 18 -131 18q-10 0 -10 10v94q0 11 10 11q54 0 105 -9q-12 69 -12 116v503h110v-636q60 -23 137 -78z" />
    <glyph glyph-name="uniFCFB" unicode="&#xfcfb;" horiz-adv-x="1470" arabic-form="isolated" 
d="M1390 485q30 -206 30 -298q0 -80 -58.5 -133.5t-145.5 -53.5q-79 0 -174 59q-56 -59 -158 -59q-100 0 -162 55t-62 145q0 83 20 177q-119 -9 -187.5 -46t-68.5 -81q0 -22 15 -39t61 -46l37 -24q106 -69 106 -160q0 -85 -83 -140.5t-213 -55.5q-163 0 -240 69t-77 210
q0 89 44 221l96 -26q-35 -100 -35 -180q0 -96 56 -138t189 -42q66 0 114 19t48 49q0 27 -77 79l-45 31q-97 67 -97 163q0 93 93 165t285 90l90 -55q-33 -141 -33 -212q0 -52 34 -82.5t92 -30.5q82 0 105 50q23 51 23 205h102q0 -146 -26 -227q62 -28 118 -28q104 0 104 80
q0 86 -30 290h110z" />
    <glyph glyph-name="uniFCFC" unicode="&#xfcfc;" horiz-adv-x="1470" arabic-form="isolated" 
d="M1390 485q30 -206 30 -298q0 -80 -58.5 -133.5t-145.5 -53.5q-79 0 -174 59q-56 -59 -158 -59q-100 0 -162 55t-62 145q0 83 20 177q-119 -9 -187.5 -46t-68.5 -81q0 -22 15 -39t61 -46l37 -24q106 -69 106 -160q0 -85 -83 -140.5t-213 -55.5q-163 0 -240 69t-77 210
q0 89 44 221l96 -26q-35 -100 -35 -180q0 -96 56 -138t189 -42q66 0 114 19t48 49q0 27 -77 79l-45 31q-97 67 -97 163q0 93 93 165t285 90l90 -55q-33 -141 -33 -212q0 -52 34 -82.5t92 -30.5q82 0 105 50q23 51 23 205h102q0 -146 -26 -227q62 -28 118 -28q104 0 104 80
q0 86 -30 290h110zM408 -335l75 74l89 -88l-88 -88l-76 74l-75 -74l-89 88l88 88z" />
    <glyph glyph-name="uniFCFD" unicode="&#xfcfd;" horiz-adv-x="1470" arabic-form="isolated" 
d="M1149 676l-70 -70l-71 70l70 71zM1079 538l-80 -79l-89 88l88 89l81 -80l80 80l89 -89l-88 -88zM1390 485q30 -206 30 -298q0 -80 -58.5 -133.5t-145.5 -53.5q-79 0 -174 59q-56 -59 -158 -59q-100 0 -162 55t-62 145q0 83 20 177q-119 -9 -187.5 -46t-68.5 -81
q0 -22 15 -39t61 -46l37 -24q106 -69 106 -160q0 -85 -83 -140.5t-213 -55.5q-163 0 -240 69t-77 210q0 89 44 221l96 -26q-35 -100 -35 -180q0 -96 56 -138t189 -42q66 0 114 19t48 49q0 27 -77 79l-45 31q-97 67 -97 163q0 93 93 165t285 90l90 -55q-33 -141 -33 -212
q0 -52 34 -82.5t92 -30.5q82 0 105 50q23 51 23 205h102q0 -146 -26 -227q62 -28 118 -28q104 0 104 80q0 86 -30 290h110z" />
    <glyph glyph-name="uniFCFE" unicode="&#xfcfe;" horiz-adv-x="1470" arabic-form="isolated" 
d="M1134 676l-70 -70l-71 70l70 71zM1064 538l-80 -79l-89 88l88 89l81 -80l80 80l89 -89l-88 -88zM1390 485q30 -206 30 -298q0 -80 -58.5 -133.5t-145.5 -53.5q-79 0 -174 59q-56 -59 -158 -59q-100 0 -162 55t-62 145q0 83 20 177q-119 -9 -187.5 -46t-68.5 -81
q0 -22 15 -39t61 -46l37 -24q106 -69 106 -160q0 -85 -83 -140.5t-213 -55.5q-163 0 -240 69t-77 210q0 89 44 221l96 -26q-35 -100 -35 -180q0 -96 56 -138t189 -42q66 0 114 19t48 49q0 27 -77 79l-45 31q-97 67 -97 163q0 93 93 165t285 90l90 -55q-33 -141 -33 -212
q0 -52 34 -82.5t92 -30.5q82 0 105 50q23 51 23 205h102q0 -146 -26 -227q62 -28 118 -28q104 0 104 80q0 86 -30 290h110zM408 -335l75 74l89 -88l-88 -88l-76 74l-75 -74l-89 88l88 88z" />
    <glyph glyph-name="uniFD05" unicode="&#xfd05;" horiz-adv-x="1497" arabic-form="isolated" 
d="M1242 538q92 0 153.5 -62t61.5 -155q0 -145 -112.5 -233t-297.5 -88h-162q-107 0 -166 52.5t-59 147.5q0 83 20 177q-119 -9 -187.5 -46t-68.5 -81q0 -22 15 -39t61 -46l37 -24q106 -69 106 -160q0 -85 -83 -140.5t-213 -55.5q-163 0 -240 69t-77 210q0 89 44 221l96 -26
q-35 -100 -35 -180q0 -96 56 -138t189 -42q66 0 114 19t48 49q0 27 -77 79l-45 31q-97 67 -97 163q0 93 93 165t285 90l90 -55q-33 -143 -33 -212q0 -39 11 -64q173 220 273.5 297t199.5 77zM1035 115q140 0 225.5 52t85.5 137q0 51 -35 84.5t-88 33.5q-72 0 -147 -64.5
t-217 -241.5q9 -1 30 -1h146z" />
    <glyph glyph-name="uniFD06" unicode="&#xfd06;" horiz-adv-x="1497" arabic-form="isolated" 
d="M1242 538q92 0 153.5 -62t61.5 -155q0 -145 -112.5 -233t-297.5 -88h-162q-107 0 -166 52.5t-59 147.5q0 83 20 177q-119 -9 -187.5 -46t-68.5 -81q0 -22 15 -39t61 -46l37 -24q106 -69 106 -160q0 -85 -83 -140.5t-213 -55.5q-163 0 -240 69t-77 210q0 89 44 221l96 -26
q-35 -100 -35 -180q0 -96 56 -138t189 -42q66 0 114 19t48 49q0 27 -77 79l-45 31q-97 67 -97 163q0 93 93 165t285 90l90 -55q-33 -143 -33 -212q0 -39 11 -64q173 220 273.5 297t199.5 77zM1035 115q140 0 225.5 52t85.5 137q0 51 -35 84.5t-88 33.5q-72 0 -147 -64.5
t-217 -241.5q9 -1 30 -1h146zM408 -335l75 74l89 -88l-88 -88l-76 74l-75 -74l-89 88l88 88z" />
    <glyph glyph-name="uniFD07" unicode="&#xfd07;" horiz-adv-x="1497" arabic-form="isolated" 
d="M1099 642l-88 -88l-89 88l88 88zM1242 538q92 0 153.5 -62t61.5 -155q0 -145 -112.5 -233t-297.5 -88h-162q-107 0 -166 52.5t-59 147.5q0 83 20 177q-119 -9 -187.5 -46t-68.5 -81q0 -22 15 -39t61 -46l37 -24q106 -69 106 -160q0 -85 -83 -140.5t-213 -55.5
q-163 0 -240 69t-77 210q0 89 44 221l96 -26q-35 -100 -35 -180q0 -96 56 -138t189 -42q66 0 114 19t48 49q0 27 -77 79l-45 31q-97 67 -97 163q0 93 93 165t285 90l90 -55q-33 -143 -33 -212q0 -39 11 -64q173 220 273.5 297t199.5 77zM1035 115q140 0 225.5 52t85.5 137
q0 51 -35 84.5t-88 33.5q-72 0 -147 -64.5t-217 -241.5q9 -1 30 -1h146z" />
    <glyph glyph-name="uniFD08" unicode="&#xfd08;" horiz-adv-x="1497" arabic-form="isolated" 
d="M1099 642l-88 -88l-89 88l88 88zM1242 538q92 0 153.5 -62t61.5 -155q0 -145 -112.5 -233t-297.5 -88h-162q-107 0 -166 52.5t-59 147.5q0 83 20 177q-119 -9 -187.5 -46t-68.5 -81q0 -22 15 -39t61 -46l37 -24q106 -69 106 -160q0 -85 -83 -140.5t-213 -55.5
q-163 0 -240 69t-77 210q0 89 44 221l96 -26q-35 -100 -35 -180q0 -96 56 -138t189 -42q66 0 114 19t48 49q0 27 -77 79l-45 31q-97 67 -97 163q0 93 93 165t285 90l90 -55q-33 -143 -33 -212q0 -39 11 -64q173 220 273.5 297t199.5 77zM1035 115q140 0 225.5 52t85.5 137
q0 51 -35 84.5t-88 33.5q-72 0 -147 -64.5t-217 -241.5q9 -1 30 -1h146zM408 -335l75 74l89 -88l-88 -88l-76 74l-75 -74l-89 88l88 88z" />
    <glyph glyph-name="uniFD0D" unicode="&#xfd0d;" horiz-adv-x="1220" arabic-form="isolated" 
d="M885 676l-70 -70l-71 70l70 71zM815 538l-80 -79l-89 88l88 89l81 -80l80 80l89 -89l-88 -88zM1140 485q30 -206 30 -298q0 -80 -58.5 -133.5t-145.5 -53.5q-81 0 -173 58q-54 -58 -149 -58q-115 0 -176 63.5t-61 179.5q0 45 6 85q-102 -20 -177 -46q13 -145 13 -260
q0 -111 -72.5 -174t-186.5 -63v105q66 0 109.5 36.5t43.5 103.5q0 129 -18 279l79 83q144 33 225 43l11 60l103 -17q-35 -144 -35 -225q0 -71 33 -104.5t103 -33.5q72 0 95 50q23 51 23 205h102q0 -146 -26 -227q62 -28 118 -28q104 0 104 80q0 86 -30 290h110z" />
    <glyph glyph-name="uniFD0E" unicode="&#xfd0e;" horiz-adv-x="1220" arabic-form="isolated" 
d="M1140 485q30 -206 30 -298q0 -80 -58.5 -133.5t-145.5 -53.5q-81 0 -173 58q-54 -58 -149 -58q-115 0 -176 63.5t-61 179.5q0 45 6 85q-102 -20 -177 -46q13 -145 13 -260q0 -111 -72.5 -174t-186.5 -63v105q66 0 109.5 36.5t43.5 103.5q0 129 -18 279l79 83
q144 33 225 43l11 60l103 -17q-35 -144 -35 -225q0 -71 33 -104.5t103 -33.5q72 0 95 50q23 51 23 205h102q0 -146 -26 -227q62 -28 118 -28q104 0 104 80q0 86 -30 290h110z" />
    <glyph glyph-name="uniFD0F" unicode="&#xfd0f;" horiz-adv-x="1291" arabic-form="isolated" 
d="M1036 538q92 0 153.5 -62t61.5 -155q0 -145 -112.5 -233t-297.5 -88h-98q-336 0 -336 243q0 45 6 85q-102 -20 -177 -46q13 -145 13 -260q0 -111 -72.5 -174t-186.5 -63v105q66 0 109.5 36.5t43.5 103.5q0 129 -18 279l79 83q144 33 225 43l11 60l103 -17
q-35 -144 -35 -225q0 -71 46 -102q176 227 280 307t202 80zM829 115q140 0 225.5 52t85.5 137q0 51 -35 84.5t-88 33.5q-71 0 -145 -63.5t-215 -238.5q45 -5 96 -5h76z" />
    <glyph glyph-name="uniFD10" unicode="&#xfd10;" horiz-adv-x="1291" arabic-form="isolated" 
d="M849 626l-88 -88l-89 88l88 88zM1036 538q92 0 153.5 -62t61.5 -155q0 -145 -112.5 -233t-297.5 -88h-98q-336 0 -336 243q0 45 6 85q-102 -20 -177 -46q13 -145 13 -260q0 -111 -72.5 -174t-186.5 -63v105q66 0 109.5 36.5t43.5 103.5q0 129 -18 279l79 83
q144 33 225 43l11 60l103 -17q-35 -144 -35 -225q0 -71 46 -102q176 227 280 307t202 80zM829 115q140 0 225.5 52t85.5 137q0 51 -35 84.5t-88 33.5q-71 0 -145 -63.5t-215 -238.5q45 -5 96 -5h76z" />
    <glyph glyph-name="uniFD17" unicode="&#xfd17;" horiz-adv-x="1509" arabic-form="final" 
d="M1509 115q10 0 10 -10v-94q0 -11 -10 -11q-86 0 -166 67q-51 -67 -151 -67q-63 0 -151 57q-55 -57 -157 -57q-100 0 -162 55t-62 145q0 83 20 177q-119 -9 -187.5 -46t-68.5 -81q0 -22 15 -39t61 -46l37 -24q106 -69 106 -160q0 -85 -83 -140.5t-213 -55.5
q-163 0 -240 69t-77 210q0 89 44 221l96 -26q-35 -100 -35 -180q0 -96 56 -138t189 -42q66 0 114 19t48 49q0 27 -77 79l-45 31q-97 67 -97 163q0 93 93 165t285 90l90 -55q-33 -141 -33 -212q0 -52 34 -82.5t92 -30.5q82 0 105 50q23 51 23 205h102q0 -146 -27 -231
q49 -24 105 -24q67 0 90 50q23 51 23 205v70h102v-70q0 -141 -25 -223q55 -32 127 -32z" />
    <glyph glyph-name="uniFD18" unicode="&#xfd18;" horiz-adv-x="1509" arabic-form="final" 
d="M1509 115q10 0 10 -10v-94q0 -11 -10 -11q-86 0 -166 67q-51 -67 -151 -67q-63 0 -151 57q-55 -57 -157 -57q-100 0 -162 55t-62 145q0 83 20 177q-119 -9 -187.5 -46t-68.5 -81q0 -22 15 -39t61 -46l37 -24q106 -69 106 -160q0 -85 -83 -140.5t-213 -55.5
q-163 0 -240 69t-77 210q0 89 44 221l96 -26q-35 -100 -35 -180q0 -96 56 -138t189 -42q66 0 114 19t48 49q0 27 -77 79l-45 31q-97 67 -97 163q0 93 93 165t285 90l90 -55q-33 -141 -33 -212q0 -52 34 -82.5t92 -30.5q82 0 105 50q23 51 23 205h102q0 -146 -27 -231
q49 -24 105 -24q67 0 90 50q23 51 23 205v70h102v-70q0 -141 -25 -223q55 -32 127 -32zM408 -335l75 74l89 -88l-88 -88l-76 74l-75 -74l-89 88l88 88z" />
    <glyph glyph-name="uniFD19" unicode="&#xfd19;" horiz-adv-x="1509" arabic-form="final" 
d="M1123 676l-70 -70l-71 70l70 71zM1053 538l-80 -79l-89 88l88 89l81 -80l80 80l89 -89l-88 -88zM1509 115q10 0 10 -10v-94q0 -11 -10 -11q-86 0 -166 67q-51 -67 -151 -67q-63 0 -151 57q-55 -57 -157 -57q-100 0 -162 55t-62 145q0 83 20 177q-119 -9 -187.5 -46
t-68.5 -81q0 -22 15 -39t61 -46l37 -24q106 -69 106 -160q0 -85 -83 -140.5t-213 -55.5q-163 0 -240 69t-77 210q0 89 44 221l96 -26q-35 -100 -35 -180q0 -96 56 -138t189 -42q66 0 114 19t48 49q0 27 -77 79l-45 31q-97 67 -97 163q0 93 93 165t285 90l90 -55
q-33 -141 -33 -212q0 -52 34 -82.5t92 -30.5q82 0 105 50q23 51 23 205h102q0 -146 -27 -231q49 -24 105 -24q67 0 90 50q23 51 23 205v70h102v-70q0 -141 -25 -223q55 -32 127 -32z" />
    <glyph glyph-name="uniFD1A" unicode="&#xfd1a;" horiz-adv-x="1509" arabic-form="final" 
d="M1117 676l-70 -70l-71 70l70 71zM1047 538l-80 -79l-89 88l88 89l81 -80l80 80l89 -89l-88 -88zM1509 115q10 0 10 -10v-94q0 -11 -10 -11q-86 0 -166 67q-51 -67 -151 -67q-63 0 -151 57q-55 -57 -157 -57q-100 0 -162 55t-62 145q0 83 20 177q-119 -9 -187.5 -46
t-68.5 -81q0 -22 15 -39t61 -46l37 -24q106 -69 106 -160q0 -85 -83 -140.5t-213 -55.5q-163 0 -240 69t-77 210q0 89 44 221l96 -26q-35 -100 -35 -180q0 -96 56 -138t189 -42q66 0 114 19t48 49q0 27 -77 79l-45 31q-97 67 -97 163q0 93 93 165t285 90l90 -55
q-33 -141 -33 -212q0 -52 34 -82.5t92 -30.5q82 0 105 50q23 51 23 205h102q0 -146 -27 -231q49 -24 105 -24q67 0 90 50q23 51 23 205v70h102v-70q0 -141 -25 -223q55 -32 127 -32zM408 -335l75 74l89 -88l-88 -88l-76 74l-75 -74l-89 88l88 88z" />
    <glyph glyph-name="uniFD21" unicode="&#xfd21;" horiz-adv-x="1522" arabic-form="final" 
d="M1522 115q10 0 10 -10v-94q0 -11 -10 -11q-97 0 -183 83q-113 -83 -292 -83h-162q-107 0 -166 52.5t-59 147.5q0 83 20 177q-119 -9 -187.5 -46t-68.5 -81q0 -22 15 -39t61 -46l37 -24q106 -69 106 -160q0 -85 -83 -140.5t-213 -55.5q-163 0 -240 69t-77 210q0 89 44 221
l96 -26q-35 -100 -35 -180q0 -96 56 -138t189 -42q66 0 114 19t48 49q0 27 -77 79l-45 31q-97 67 -97 163q0 93 93 165t285 90l90 -55q-33 -143 -33 -212q0 -39 11 -64q173 220 273.5 297t199.5 77q92 0 153.5 -62t61.5 -155q0 -102 -57 -177q54 -29 122 -29zM1035 115
q140 0 225.5 52t85.5 137q0 51 -35 84.5t-88 33.5q-72 0 -147 -64.5t-217 -241.5q9 -1 30 -1h146z" />
    <glyph glyph-name="uniFD22" unicode="&#xfd22;" horiz-adv-x="1522" arabic-form="final" 
d="M1522 115q10 0 10 -10v-94q0 -11 -10 -11q-97 0 -183 83q-113 -83 -292 -83h-162q-107 0 -166 52.5t-59 147.5q0 83 20 177q-119 -9 -187.5 -46t-68.5 -81q0 -22 15 -39t61 -46l37 -24q106 -69 106 -160q0 -85 -83 -140.5t-213 -55.5q-163 0 -240 69t-77 210q0 89 44 221
l96 -26q-35 -100 -35 -180q0 -96 56 -138t189 -42q66 0 114 19t48 49q0 27 -77 79l-45 31q-97 67 -97 163q0 93 93 165t285 90l90 -55q-33 -143 -33 -212q0 -39 11 -64q173 220 273.5 297t199.5 77q92 0 153.5 -62t61.5 -155q0 -102 -57 -177q54 -29 122 -29zM1035 115
q140 0 225.5 52t85.5 137q0 51 -35 84.5t-88 33.5q-72 0 -147 -64.5t-217 -241.5q9 -1 30 -1h146zM408 -335l75 74l89 -88l-88 -88l-76 74l-75 -74l-89 88l88 88z" />
    <glyph glyph-name="uniFD23" unicode="&#xfd23;" horiz-adv-x="1522" arabic-form="final" 
d="M1099 642l-88 -88l-89 88l88 88zM1522 115q10 0 10 -10v-94q0 -11 -10 -11q-97 0 -183 83q-113 -83 -292 -83h-162q-107 0 -166 52.5t-59 147.5q0 83 20 177q-119 -9 -187.5 -46t-68.5 -81q0 -22 15 -39t61 -46l37 -24q106 -69 106 -160q0 -85 -83 -140.5t-213 -55.5
q-163 0 -240 69t-77 210q0 89 44 221l96 -26q-35 -100 -35 -180q0 -96 56 -138t189 -42q66 0 114 19t48 49q0 27 -77 79l-45 31q-97 67 -97 163q0 93 93 165t285 90l90 -55q-33 -143 -33 -212q0 -39 11 -64q173 220 273.5 297t199.5 77q92 0 153.5 -62t61.5 -155
q0 -102 -57 -177q54 -29 122 -29zM1035 115q140 0 225.5 52t85.5 137q0 51 -35 84.5t-88 33.5q-72 0 -147 -64.5t-217 -241.5q9 -1 30 -1h146z" />
    <glyph glyph-name="uniFD24" unicode="&#xfd24;" horiz-adv-x="1522" arabic-form="final" 
d="M1099 642l-88 -88l-89 88l88 88zM1522 115q10 0 10 -10v-94q0 -11 -10 -11q-97 0 -183 83q-113 -83 -292 -83h-162q-107 0 -166 52.5t-59 147.5q0 83 20 177q-119 -9 -187.5 -46t-68.5 -81q0 -22 15 -39t61 -46l37 -24q106 -69 106 -160q0 -85 -83 -140.5t-213 -55.5
q-163 0 -240 69t-77 210q0 89 44 221l96 -26q-35 -100 -35 -180q0 -96 56 -138t189 -42q66 0 114 19t48 49q0 27 -77 79l-45 31q-97 67 -97 163q0 93 93 165t285 90l90 -55q-33 -143 -33 -212q0 -39 11 -64q173 220 273.5 297t199.5 77q92 0 153.5 -62t61.5 -155
q0 -102 -57 -177q54 -29 122 -29zM1035 115q140 0 225.5 52t85.5 137q0 51 -35 84.5t-88 33.5q-72 0 -147 -64.5t-217 -241.5q9 -1 30 -1h146zM408 -335l75 74l89 -88l-88 -88l-76 74l-75 -74l-89 88l88 88z" />
    <glyph glyph-name="uniFD29" unicode="&#xfd29;" horiz-adv-x="1269" arabic-form="final" 
d="M875 676l-70 -70l-71 70l70 71zM805 538l-80 -79l-89 88l88 89l81 -80l80 80l89 -89l-88 -88zM1269 115q10 0 10 -10v-94q0 -11 -10 -11q-86 0 -166 67q-51 -67 -151 -67q-63 0 -157 61q-54 -61 -151 -61q-115 0 -176 63.5t-61 179.5q0 45 6 85q-102 -20 -177 -46
q13 -145 13 -260q0 -111 -72.5 -174t-186.5 -63v105q66 0 109.5 36.5t43.5 103.5q0 129 -18 279l79 83q144 33 225 43l11 60l103 -17q-35 -144 -35 -225q0 -71 33 -104.5t103 -33.5q72 0 95 50q23 51 23 205h102q0 -145 -26 -226q53 -29 114 -29q67 0 90 50q23 51 23 205v70
h102v-70q0 -141 -25 -223q55 -32 127 -32z" />
    <glyph glyph-name="uniFD2A" unicode="&#xfd2a;" horiz-adv-x="1269" arabic-form="final" 
d="M1269 115q10 0 10 -10v-94q0 -11 -10 -11q-86 0 -166 67q-51 -67 -151 -67q-63 0 -157 61q-54 -61 -151 -61q-115 0 -176 63.5t-61 179.5q0 45 6 85q-102 -20 -177 -46q13 -145 13 -260q0 -111 -72.5 -174t-186.5 -63v105q66 0 109.5 36.5t43.5 103.5q0 129 -18 279
l79 83q144 33 225 43l11 60l103 -17q-35 -144 -35 -225q0 -71 33 -104.5t103 -33.5q72 0 95 50q23 51 23 205h102q0 -145 -26 -226q53 -29 114 -29q67 0 90 50q23 51 23 205v70h102v-70q0 -141 -25 -223q55 -32 127 -32z" />
    <glyph glyph-name="uniFD2B" unicode="&#xfd2b;" horiz-adv-x="1312" arabic-form="final" 
d="M1312 115q10 0 10 -10v-94q0 -11 -10 -11q-97 0 -182 82q-110 -82 -289 -82h-98q-336 0 -336 243q0 45 6 85q-102 -20 -177 -46q13 -145 13 -260q0 -111 -72.5 -174t-186.5 -63v105q66 0 109.5 36.5t43.5 103.5q0 129 -18 279l79 83q144 33 225 43l11 60l103 -17
q-35 -144 -35 -225q0 -71 46 -102q176 227 280 307t202 80q92 0 153.5 -62t61.5 -155q0 -101 -58 -178q53 -28 119 -28zM829 115q140 0 225.5 52t85.5 137q0 51 -35 84.5t-88 33.5q-71 0 -145 -63.5t-215 -238.5q45 -5 96 -5h76z" />
    <glyph glyph-name="uniFD2C" unicode="&#xfd2c;" horiz-adv-x="1312" arabic-form="final" 
d="M849 626l-88 -88l-89 88l88 88zM1312 115q10 0 10 -10v-94q0 -11 -10 -11q-97 0 -182 82q-110 -82 -289 -82h-98q-336 0 -336 243q0 45 6 85q-102 -20 -177 -46q13 -145 13 -260q0 -111 -72.5 -174t-186.5 -63v105q66 0 109.5 36.5t43.5 103.5q0 129 -18 279l79 83
q144 33 225 43l11 60l103 -17q-35 -144 -35 -225q0 -71 46 -102q176 227 280 307t202 80q92 0 153.5 -62t61.5 -155q0 -101 -58 -178q53 -28 119 -28zM829 115q140 0 225.5 52t85.5 137q0 51 -35 84.5t-88 33.5q-71 0 -145 -63.5t-215 -238.5q45 -5 96 -5h76z" />
    <glyph glyph-name="uniFE82" unicode="&#x622;" horiz-adv-x="294" arabic-form="final" 
d="M69 759q22 0 64.5 -18.5t65.5 -18.5q46 0 80 26l-1 -76q-33 -25 -77 -25q-23 0 -62 18.5t-58 18.5q-45 0 -51 -39h-60q0 52 27 83t72 31zM190 600v-401q0 -44 23 -64t81 -20q10 0 10 -10v-94q0 -11 -10 -11q-103 0 -158.5 52t-55.5 139v409h110z" />
    <glyph glyph-name="uniFE84" unicode="&#x623;" horiz-adv-x="294" arabic-form="final" 
d="M266 725l-20 -70h-167q-34 0 -75 -12v68q39 14 68 14q-24 23 -24 57q0 39 28 65.5t68 26.5q42 0 84 -20v-66q-42 16 -66 16q-21 0 -36 -12t-15 -31q0 -16 13 -26t33 -10h109zM294 115q10 0 10 -10v-94q0 -11 -10 -11q-103 0 -158.5 52t-55.5 139v409h110v-401
q0 -44 23 -64t81 -20z" />
    <glyph glyph-name="uniFE86" unicode="&#x624;" horiz-adv-x="546" arabic-form="final" 
d="M367 559h-132q-48 0 -106 -17v87q38 13 56 16q-22 25 -22 57q0 44 31 74t86 30q30 0 74 -21v-84q-45 14 -72 14q-19 0 -32 -9t-13 -23q0 -34 63 -34h94zM546 115q10 0 10 -10v-94q0 -11 -10 -11h-59q-12 -99 -100 -157t-263 -58v105q108 0 172.5 30t80.5 80h-71
q-121 0 -193.5 63.5t-72.5 172.5q0 108 65.5 178.5t165.5 70.5q92 0 149 -59.5t63 -168.5q3 -52 4 -142h59zM150 240q0 -125 171 -125h59q-2 49 -8 133q-9 122 -104 122q-50 0 -84 -36.5t-34 -93.5z" />
    <glyph glyph-name="uniFE88" unicode="&#x625;" horiz-adv-x="294" arabic-form="final" 
d="M294 115q10 0 10 -10v-94q0 -11 -10 -11q-103 0 -158.5 52t-55.5 139v534h110v-526q0 -44 23 -64t81 -20zM107 -159q0 -16 13 -26t33 -10h109l-20 -70h-167q-34 0 -75 -12v68q39 14 68 14q-24 23 -24 57q0 39 28 65.5t68 26.5q42 0 84 -20v-66q-42 16 -66 16
q-21 0 -36 -12t-15 -31z" />
    <glyph glyph-name="uniFE8A" unicode="&#x626;" horiz-adv-x="676" arabic-form="final" 
d="M595 239h-132q-48 0 -106 -17v87q38 13 56 16q-22 25 -22 57q0 44 31 74t86 30q30 0 74 -21v-84q-45 14 -72 14q-19 0 -32 -9t-13 -23q0 -34 63 -34h94zM676 115q10 0 10 -10v-94q0 -11 -10 -11h-3q-41 -103 -136.5 -159t-229.5 -56q-125 0 -201 73t-76 206q0 89 44 221
l96 -26q-35 -100 -35 -180q0 -179 198 -179q83 0 145.5 29t95.5 82q-11 2 -24.5 5.5t-34 8.5t-35.5 9v110q135 -29 196 -29z" />
    <glyph glyph-name="uniFE8B" unicode="&#x626;" horiz-adv-x="357" arabic-form="initial" 
d="M243 629h94l-27 -90h-132q-48 0 -106 -17v87q38 13 56 16q-22 25 -22 57q0 44 31 74t86 30q30 0 74 -21v-84q-45 14 -72 14q-19 0 -32 -9t-13 -23q0 -34 63 -34zM154 485h110q30 -205 30 -294q0 -87 -55.5 -139t-158.5 -52h-80q-10 0 -10 11v94q0 10 10 10h80q58 0 81 20
t23 64q0 81 -30 286z" />
    <glyph glyph-name="uniFE8C" unicode="&#x626;" horiz-adv-x="370" arabic-form="medial" 
d="M307 441h-132q-48 0 -106 -17v87q38 13 56 16q-22 25 -22 57q0 44 31 74t86 30q30 0 74 -21v-84q-45 14 -72 14q-19 0 -32 -9t-13 -23q0 -34 63 -34h94zM370 115q10 0 10 -10v-94q0 -11 -10 -11q-91 0 -180 75q-57 -75 -190 -75q-10 0 -10 11v94q0 10 10 10q90 0 119 48
q17 28 21.5 73.5t4.5 133.5h102q0 -142 -19 -215q70 -40 142 -40z" />
    <glyph glyph-name="uniFE8E" unicode="&#x627;" horiz-adv-x="294" arabic-form="final" 
d="M190 725v-526q0 -44 23 -64t81 -20q10 0 10 -10v-94q0 -11 -10 -11q-103 0 -158.5 52t-55.5 139v534h110z" />
    <glyph glyph-name="uniFE90" unicode="&#x628;" horiz-adv-x="831" arabic-form="final" 
d="M831 115q10 0 10 -10v-94q0 -11 -10 -11q-80 0 -155 59q-44 -50 -116 -57q-2 -2 -5 -2h-257q-131 0 -199.5 62t-68.5 181q0 69 25 197l103 -17q-20 -103 -20 -160q0 -82 40.5 -115t141.5 -33h211q67 0 90 50q23 51 23 205h102q0 -146 -27 -231q49 -24 112 -24zM341 -144
l88 88l89 -88l-88 -88z" />
    <glyph glyph-name="uniFE91" unicode="&#x628;" horiz-adv-x="264" arabic-form="initial" 
d="M184 485q30 -205 30 -294q0 -87 -55.5 -139t-158.5 -52q-10 0 -10 11v94q0 10 10 10q58 0 81 20t23 64q0 81 -30 286h110zM104 -64l89 -88l-88 -88l-89 88z" />
    <glyph glyph-name="uniFE92" unicode="&#x628;" horiz-adv-x="300" arabic-form="medial" 
d="M300 115q10 0 10 -10v-94q0 -11 -10 -11q-80 0 -155 59q-53 -59 -145 -59q-10 0 -10 11v94q0 10 10 10q67 0 90 50q23 51 23 205h102q0 -146 -27 -231q49 -24 112 -24zM59 -152l88 88l89 -88l-88 -88z" />
    <glyph glyph-name="uniFE94" unicode="&#x629;" horiz-adv-x="535" arabic-form="final" 
d="M358 672l-75 -74l-89 88l88 88l76 -74l75 74l89 -88l-88 -88zM535 115q10 0 10 -10v-94q0 -11 -10 -11q-89 0 -136 53q-91 -53 -161 -53q-95 0 -151.5 51t-56.5 139q0 42 15 84t48.5 85t99 76.5t155.5 47.5v55h110v-345q0 -39 17 -58.5t60 -19.5zM240 114q57 0 116 22
q-8 35 -8 72v169q-99 -17 -153.5 -64t-54.5 -114q0 -41 26 -63t74 -22z" />
    <glyph glyph-name="uniFE96" unicode="&#x62a;" horiz-adv-x="831" arabic-form="final" 
d="M442 514l-75 -74l-89 88l88 88l76 -74l75 74l89 -88l-88 -88zM831 115q10 0 10 -10v-94q0 -11 -10 -11q-80 0 -155 59q-44 -50 -116 -57q-2 -2 -5 -2h-257q-131 0 -199.5 62t-68.5 181q0 69 25 197l103 -17q-20 -103 -20 -160q0 -82 40.5 -115t141.5 -33h211q67 0 90 50
q23 51 23 205h102q0 -146 -27 -231q49 -24 112 -24z" />
    <glyph glyph-name="uniFE97" unicode="&#x62a;" horiz-adv-x="381" arabic-form="initial" 
d="M197 623l-75 -74l-89 88l88 88l76 -74l75 74l89 -88l-88 -88zM154 485h110q30 -205 30 -294q0 -87 -55.5 -139t-158.5 -52h-80q-10 0 -10 11v94q0 10 10 10h80q58 0 81 20t23 64q0 81 -30 286z" />
    <glyph glyph-name="uniFE98" unicode="&#x62a;" horiz-adv-x="370" arabic-form="medial" 
d="M196 513l-75 -74l-89 88l88 88l76 -74l75 74l89 -88l-88 -88zM370 115q10 0 10 -10v-94q0 -11 -10 -11q-91 0 -180 75q-57 -75 -190 -75q-10 0 -10 11v94q0 10 10 10q90 0 119 48q17 28 21.5 73.5t4.5 133.5h102q0 -142 -19 -215q70 -40 142 -40z" />
    <glyph glyph-name="uniFE9A" unicode="&#x62b;" horiz-adv-x="831" arabic-form="final" 
d="M500 658l-70 -70l-71 70l70 71zM430 520l-80 -79l-89 88l88 89l81 -80l80 80l89 -89l-88 -88zM831 115q10 0 10 -10v-94q0 -11 -10 -11q-80 0 -155 59q-44 -50 -116 -57q-2 -2 -5 -2h-257q-131 0 -199.5 62t-68.5 181q0 69 25 197l103 -17q-20 -103 -20 -160
q0 -82 40.5 -115t141.5 -33h211q67 0 90 50q23 51 23 205h102q0 -146 -27 -231q49 -24 112 -24z" />
    <glyph glyph-name="uniFE9B" unicode="&#x62b;" horiz-adv-x="387" arabic-form="initial" 
d="M268 763l-70 -70l-71 70l70 71zM198 625l-80 -79l-89 88l88 89l81 -80l80 80l89 -89l-88 -88zM154 485h110q30 -205 30 -294q0 -87 -55.5 -139t-158.5 -52h-80q-10 0 -10 11v94q0 10 10 10h80q58 0 81 20t23 64q0 81 -30 286z" />
    <glyph glyph-name="uniFE9C" unicode="&#x62b;" horiz-adv-x="370" arabic-form="medial" 
d="M257 656l-70 -70l-71 70l70 71zM187 518l-80 -79l-89 88l88 89l81 -80l80 80l89 -89l-88 -88zM370 115q10 0 10 -10v-94q0 -11 -10 -11q-91 0 -180 75q-57 -75 -190 -75q-10 0 -10 11v94q0 10 10 10q90 0 119 48q17 28 21.5 73.5t4.5 133.5h102q0 -142 -19 -215
q70 -40 142 -40z" />
    <glyph glyph-name="uniFE9E" unicode="&#x62c;" horiz-adv-x="651" arabic-form="final" 
d="M651 115q10 0 10 -10v-94q0 -11 -10 -11q-192 0 -192 167v32q-58 -11 -112 -29.5t-102 -45t-76.5 -64.5t-28.5 -81q0 -67 48.5 -103t141.5 -36q84 0 198 33l32 -100q-144 -48 -245 -48q-136 0 -210.5 62.5t-74.5 175.5q0 73 35.5 130.5t97.5 95t130.5 60.5t150.5 37
q-35 19 -88 58t-92 59t-80 20t-103 -23l-32 100q73 38 140 38q51 0 105.5 -28.5t97 -64t102.5 -73t117 -50.5l-30 -110q-13 0 -47 -2v-25q0 -39 25 -54.5t92 -15.5zM359 -82l-89 88l88 88l89 -88z" />
    <glyph glyph-name="uniFE9F" unicode="&#x62c;" horiz-adv-x="611" arabic-form="initial" 
d="M189 485q51 0 102 -25t89.5 -56.5t96 -66t114.5 -48.5l-30 -110q-66 -11 -118.5 -34t-89 -46.5t-79 -46.5t-111 -37.5t-162.5 -14.5q-11 0 -11 11v94q0 10 11 10q83 0 155 14t110.5 28.5t97 42t83.5 37.5q-40 20 -91.5 57t-90 56.5t-81.5 19.5q-41 0 -103 -23l-32 100
q73 38 140 38zM161 -152l88 88l89 -88l-88 -88z" />
    <glyph glyph-name="uniFEA0" unicode="&#x62c;" horiz-adv-x="631" arabic-form="medial" 
d="M631 115q10 0 10 -10v-94q0 -11 -10 -11q-174 0 -190 145q-35 -15 -84.5 -45t-84.5 -49.5t-106 -35t-165 -15.5q-11 0 -11 11v94q0 10 11 10q83 0 155 14t110.5 28.5t97 42t83.5 37.5q-40 20 -91.5 57t-90 56.5t-81.5 19.5q-41 0 -103 -23l-32 100q73 38 140 38
q51 0 102 -25t89.5 -56.5t96 -66t114.5 -48.5l-30 -110l-46 -9q16 -55 116 -55zM161 -152l88 88l89 -88l-88 -88z" />
    <glyph glyph-name="uniFEA2" unicode="&#x62d;" horiz-adv-x="651" arabic-form="final" 
d="M651 115q10 0 10 -10v-94q0 -11 -10 -11q-192 0 -192 167v32q-58 -11 -112 -29.5t-102 -45t-76.5 -64.5t-28.5 -81q0 -67 48.5 -103t141.5 -36q84 0 198 33l32 -100q-144 -48 -245 -48q-136 0 -210.5 62.5t-74.5 175.5q0 73 35.5 130.5t97.5 95t130.5 60.5t150.5 37
q-35 19 -88 58t-92 59t-80 20t-103 -23l-32 100q73 38 140 38q51 0 105.5 -28.5t97 -64t102.5 -73t117 -50.5l-30 -110q-13 0 -47 -2v-25q0 -39 25 -54.5t92 -15.5z" />
    <glyph glyph-name="uniFEA3" unicode="&#x62d;" horiz-adv-x="611" arabic-form="initial" 
d="M189 485q51 0 102 -25t89.5 -56.5t96 -66t114.5 -48.5l-30 -110q-66 -11 -118.5 -34t-89 -46.5t-79 -46.5t-111 -37.5t-162.5 -14.5q-11 0 -11 11v94q0 10 11 10q83 0 155 14t110.5 28.5t97 42t83.5 37.5q-40 20 -91.5 57t-90 56.5t-81.5 19.5q-41 0 -103 -23l-32 100
q73 38 140 38z" />
    <glyph glyph-name="uniFEA4" unicode="&#x62d;" horiz-adv-x="631" arabic-form="medial" 
d="M631 115q10 0 10 -10v-94q0 -11 -10 -11q-174 0 -190 145q-35 -15 -84.5 -45t-84.5 -49.5t-106 -35t-165 -15.5q-11 0 -11 11v94q0 10 11 10q83 0 155 14t110.5 28.5t97 42t83.5 37.5q-40 20 -91.5 57t-90 56.5t-81.5 19.5q-41 0 -103 -23l-32 100q73 38 140 38
q51 0 102 -25t89.5 -56.5t96 -66t114.5 -48.5l-30 -110l-46 -9q16 -55 116 -55z" />
    <glyph glyph-name="uniFEA6" unicode="&#x62e;" horiz-adv-x="651" arabic-form="final" 
d="M514 626l-88 -88l-89 88l88 88zM651 115q10 0 10 -10v-94q0 -11 -10 -11q-192 0 -192 167v32q-58 -11 -112 -29.5t-102 -45t-76.5 -64.5t-28.5 -81q0 -67 48.5 -103t141.5 -36q84 0 198 33l32 -100q-144 -48 -245 -48q-136 0 -210.5 62.5t-74.5 175.5q0 73 35.5 130.5
t97.5 95t130.5 60.5t150.5 37q-35 19 -88 58t-92 59t-80 20t-103 -23l-32 100q73 38 140 38q51 0 105.5 -28.5t97 -64t102.5 -73t117 -50.5l-30 -110q-13 0 -47 -2v-25q0 -39 25 -54.5t92 -15.5z" />
    <glyph glyph-name="uniFEA7" unicode="&#x62e;" horiz-adv-x="611" arabic-form="initial" 
d="M335 634l-88 -88l-89 88l88 88zM189 485q51 0 102 -25t89.5 -56.5t96 -66t114.5 -48.5l-30 -110q-66 -11 -118.5 -34t-89 -46.5t-79 -46.5t-111 -37.5t-162.5 -14.5q-11 0 -11 11v94q0 10 11 10q83 0 155 14t110.5 28.5t97 42t83.5 37.5q-40 20 -91.5 57t-90 56.5
t-81.5 19.5q-41 0 -103 -23l-32 100q73 38 140 38z" />
    <glyph glyph-name="uniFEA8" unicode="&#x62e;" horiz-adv-x="631" arabic-form="medial" 
d="M335 634l-88 -88l-89 88l88 88zM631 115q10 0 10 -10v-94q0 -11 -10 -11q-174 0 -190 145q-35 -15 -84.5 -45t-84.5 -49.5t-106 -35t-165 -15.5q-11 0 -11 11v94q0 10 11 10q83 0 155 14t110.5 28.5t97 42t83.5 37.5q-40 20 -91.5 57t-90 56.5t-81.5 19.5q-41 0 -103 -23
l-32 100q73 38 140 38q51 0 102 -25t89.5 -56.5t96 -66t114.5 -48.5l-30 -110l-46 -9q16 -55 116 -55z" />
    <glyph glyph-name="uniFEAA" unicode="&#x62f;" horiz-adv-x="513" arabic-form="final" 
d="M513 115q10 0 10 -10v-94q0 -11 -10 -11q-84 0 -140 52q-78 -52 -182 -52q-81 0 -181 33l23 108q87 -26 158 -26q70 0 128 13q-9 19 -19 46q-38 110 -73 311h115q36 -223 58 -286q28 -84 113 -84z" />
    <glyph glyph-name="uniFEAC" unicode="&#x630;" horiz-adv-x="513" arabic-form="final" 
d="M372 632l-88 -88l-89 88l88 88zM513 115q10 0 10 -10v-94q0 -11 -10 -11q-84 0 -140 52q-78 -52 -182 -52q-81 0 -181 33l23 108q87 -26 158 -26q70 0 128 13q-9 19 -19 46q-38 110 -73 311h115q36 -223 58 -286q28 -84 113 -84z" />
    <glyph glyph-name="uniFEAE" unicode="&#x631;" horiz-adv-x="347" arabic-form="final" 
d="M347 115q10 0 10 -10v-94q0 -11 -10 -11q-71 0 -98 39v-17q0 -112 -69.5 -174.5t-189.5 -62.5v105q72 0 112.5 35.5t40.5 104.5q0 135 -35 410h110q17 -107 25 -246l3 -19q4 -32 28.5 -46t72.5 -14z" />
    <glyph glyph-name="uniFEB0" unicode="&#x632;" horiz-adv-x="347" arabic-form="final" 
d="M242 593l-88 -88l-89 88l88 88zM347 115q10 0 10 -10v-94q0 -11 -10 -11q-71 0 -98 39v-17q0 -112 -69.5 -174.5t-189.5 -62.5v105q72 0 112.5 35.5t40.5 104.5q0 135 -35 410h110q17 -107 25 -246l3 -19q4 -32 28.5 -46t72.5 -14z" />
    <glyph glyph-name="uniFEB2" unicode="&#x633;" horiz-adv-x="1348" arabic-form="final" 
d="M1348 115q10 0 10 -10v-94q0 -11 -10 -11q-86 0 -166 67q-51 -67 -151 -67q-63 0 -157 61q-51 -61 -146 -61q-53 0 -121 39q-16 -116 -90.5 -185t-194.5 -69q-282 0 -282 279q0 89 44 221l96 -26q-35 -100 -35 -180q0 -179 185 -179q175 0 175 199q0 17 -0.5 35t-3 42.5
t-4 39t-6.5 50t-7 49.5t-9.5 61t-9.5 64h110q31 -203 35 -294q54 -31 118 -31q67 0 90 50q23 51 23 205h102q0 -145 -26 -226q53 -29 114 -29q67 0 90 50q23 51 23 205v70h102v-70q0 -141 -25 -223q55 -32 127 -32z" />
    <glyph glyph-name="uniFEB3" unicode="&#x633;" horiz-adv-x="871" arabic-form="initial" 
d="M791 485q30 -206 30 -298q0 -80 -58.5 -133.5t-145.5 -53.5q-81 0 -173 58q-51 -58 -144 -58q-63 0 -160 63q-50 -63 -140 -63q-10 0 -10 11v94q0 10 10 10q61 0 82 50q23 51 23 205h102q0 -142 -25 -224q54 -31 118 -31q67 0 90 50q23 51 23 205h102q0 -146 -26 -227
q62 -28 118 -28q104 0 104 80q0 86 -30 290h110z" />
    <glyph glyph-name="uniFEB4" unicode="&#x633;" horiz-adv-x="920" arabic-form="medial" 
d="M920 115q10 0 10 -10v-94q0 -11 -10 -11q-86 0 -166 67q-51 -67 -151 -67q-63 0 -157 61q-51 -61 -146 -61q-63 0 -160 63q-50 -63 -140 -63q-10 0 -10 11v94q0 10 10 10q61 0 82 50q23 51 23 205h102q0 -142 -25 -224q54 -31 118 -31q67 0 90 50q23 51 23 205h102
q0 -145 -26 -226q53 -29 114 -29q67 0 90 50q23 51 23 205v70h102v-70q0 -141 -25 -223q55 -32 127 -32z" />
    <glyph glyph-name="uniFEB6" unicode="&#x634;" horiz-adv-x="1348" arabic-form="final" 
d="M958 681l-70 -70l-71 70l70 71zM888 543l-80 -79l-89 88l88 89l81 -80l80 80l89 -89l-88 -88zM1348 115q10 0 10 -10v-94q0 -11 -10 -11q-86 0 -166 67q-51 -67 -151 -67q-63 0 -157 61q-51 -61 -146 -61q-53 0 -121 39q-16 -116 -90.5 -185t-194.5 -69q-282 0 -282 279
q0 89 44 221l96 -26q-35 -100 -35 -180q0 -179 185 -179q175 0 175 199q0 17 -0.5 35t-3 42.5t-4 39t-6.5 50t-7 49.5t-9.5 61t-9.5 64h110q31 -203 35 -294q54 -31 118 -31q67 0 90 50q23 51 23 205h102q0 -145 -26 -226q53 -29 114 -29q67 0 90 50q23 51 23 205v70h102
v-70q0 -141 -25 -223q55 -32 127 -32z" />
    <glyph glyph-name="uniFEB7" unicode="&#x634;" horiz-adv-x="871" arabic-form="initial" 
d="M530 677l-70 -70l-71 70l70 71zM460 539l-80 -79l-89 88l88 89l81 -80l80 80l89 -89l-88 -88zM791 485q30 -206 30 -298q0 -80 -58.5 -133.5t-145.5 -53.5q-81 0 -173 58q-51 -58 -144 -58q-63 0 -160 63q-50 -63 -140 -63q-10 0 -10 11v94q0 10 10 10q61 0 82 50
q23 51 23 205h102q0 -142 -25 -224q54 -31 118 -31q67 0 90 50q23 51 23 205h102q0 -146 -26 -227q62 -28 118 -28q104 0 104 80q0 86 -30 290h110z" />
    <glyph glyph-name="uniFEB8" unicode="&#x634;" horiz-adv-x="920" arabic-form="medial" 
d="M528 677l-70 -70l-71 70l70 71zM458 539l-80 -79l-89 88l88 89l81 -80l80 80l89 -89l-88 -88zM920 115q10 0 10 -10v-94q0 -11 -10 -11q-86 0 -166 67q-51 -67 -151 -67q-63 0 -157 61q-51 -61 -146 -61q-63 0 -160 63q-50 -63 -140 -63q-10 0 -10 11v94q0 10 10 10
q61 0 82 50q23 51 23 205h102q0 -142 -25 -224q54 -31 118 -31q67 0 90 50q23 51 23 205h102q0 -145 -26 -226q53 -29 114 -29q67 0 90 50q23 51 23 205v70h102v-70q0 -141 -25 -223q55 -32 127 -32z" />
    <glyph glyph-name="uniFEBA" unicode="&#x635;" horiz-adv-x="1312" arabic-form="final" 
d="M1312 115q10 0 10 -10v-94q0 -11 -10 -11q-94 0 -180 80q-111 -80 -289 -80q-84 0 -238 29q-18 -112 -92 -178t-191 -66q-282 0 -282 279q0 89 44 221l96 -26q-35 -100 -35 -180q0 -179 185 -179q175 0 175 199q0 17 -0.5 35t-3 42.5t-4 39t-6.5 50t-7 49.5t-9.5 61
t-9.5 64h110q17 -111 27 -195q148 155 244.5 219t191.5 64q92 0 153.5 -62t61.5 -155q0 -96 -57 -170q51 -26 116 -26zM831 115q139 0 225 50t86 129q0 51 -35 84.5t-88 33.5q-68 0 -155.5 -60.5t-250.5 -217.5q101 -19 218 -19z" />
    <glyph glyph-name="uniFEBB" unicode="&#x635;" horiz-adv-x="1001" arabic-form="initial" 
d="M746 528q92 0 153.5 -62t61.5 -155q0 -139 -113 -225t-297 -86q-209 0 -381 72q-69 -72 -170 -72q-10 0 -10 11v94q0 10 10 10q51 0 79.5 17.5t41.5 56.5q18 56 27 181h100q-13 -132 -30 -204q23 -8 46 -15q178 222 280 299.5t202 77.5zM539 115q139 0 225 50t86 129
q0 51 -35 84.5t-88 33.5q-70 0 -143 -60.5t-210 -224.5q81 -12 165 -12z" />
    <glyph glyph-name="uniFEBC" unicode="&#x635;" horiz-adv-x="1025" arabic-form="medial" 
d="M1025 115q10 0 10 -10v-94q0 -11 -10 -11q-97 0 -182 82q-112 -82 -292 -82q-209 0 -381 72q-69 -72 -170 -72q-10 0 -10 11v94q0 10 10 10q51 0 79.5 17.5t41.5 56.5q18 56 27 181h100q-13 -132 -30 -204q23 -8 46 -15q178 222 280 299.5t202 77.5q92 0 153.5 -62
t61.5 -155q0 -95 -56 -168q55 -28 120 -28zM539 115q139 0 225 50t86 129q0 51 -35 84.5t-88 33.5q-70 0 -143 -60.5t-210 -224.5q81 -12 165 -12z" />
    <glyph glyph-name="uniFEBE" unicode="&#x636;" horiz-adv-x="1312" arabic-form="final" 
d="M863 632l-88 -88l-89 88l88 88zM1312 115q10 0 10 -10v-94q0 -11 -10 -11q-94 0 -180 80q-111 -80 -289 -80q-84 0 -238 29q-18 -112 -92 -178t-191 -66q-282 0 -282 279q0 89 44 221l96 -26q-35 -100 -35 -180q0 -179 185 -179q175 0 175 199q0 17 -0.5 35t-3 42.5
t-4 39t-6.5 50t-7 49.5t-9.5 61t-9.5 64h110q17 -111 27 -195q148 155 244.5 219t191.5 64q92 0 153.5 -62t61.5 -155q0 -96 -57 -170q51 -26 116 -26zM831 115q139 0 225 50t86 129q0 51 -35 84.5t-88 33.5q-68 0 -155.5 -60.5t-250.5 -217.5q101 -19 218 -19z" />
    <glyph glyph-name="uniFEBF" unicode="&#x636;" horiz-adv-x="1001" arabic-form="initial" 
d="M559 625l-88 -88l-89 88l88 88zM746 528q92 0 153.5 -62t61.5 -155q0 -139 -113 -225t-297 -86q-209 0 -381 72q-69 -72 -170 -72q-10 0 -10 11v94q0 10 10 10q51 0 79.5 17.5t41.5 56.5q18 56 27 181h100q-13 -132 -30 -204q23 -8 46 -15q178 222 280 299.5t202 77.5z
M539 115q139 0 225 50t86 129q0 51 -35 84.5t-88 33.5q-70 0 -143 -60.5t-210 -224.5q81 -12 165 -12z" />
    <glyph glyph-name="uniFEC0" unicode="&#x636;" horiz-adv-x="1025" arabic-form="medial" 
d="M559 625l-88 -88l-89 88l88 88zM1025 115q10 0 10 -10v-94q0 -11 -10 -11q-97 0 -182 82q-112 -82 -292 -82q-209 0 -381 72q-69 -72 -170 -72q-10 0 -10 11v94q0 10 10 10q51 0 79.5 17.5t41.5 56.5q18 56 27 181h100q-13 -132 -30 -204q23 -8 46 -15q178 222 280 299.5
t202 77.5q92 0 153.5 -62t61.5 -155q0 -95 -56 -168q55 -28 120 -28zM539 115q139 0 225 50t86 129q0 51 -35 84.5t-88 33.5q-70 0 -143 -60.5t-210 -224.5q81 -12 165 -12z" />
    <glyph glyph-name="uniFEC2" unicode="&#x637;" horiz-adv-x="885" arabic-form="final" 
d="M885 115q10 0 10 -10v-94q0 -11 -10 -11q-96 0 -181 81q-119 -81 -319 -81q-167 0 -375 45l23 108q56 -11 93 -17q12 16 40 48v541h110v-240q0 -81 -25 -201q126 142 201.5 193t157.5 51q92 0 153.5 -62t61.5 -155q0 -98 -57 -170q51 -26 117 -26zM400 115q142 0 228 50
t86 129q0 51 -35 84.5t-88 33.5q-65 0 -126.5 -52t-208.5 -216q-12 -15 -19 -22q73 -7 163 -7z" />
    <glyph glyph-name="uniFEC3" unicode="&#x637;" horiz-adv-x="792" arabic-form="initial" 
d="M537 528q92 0 153.5 -62t61.5 -155q0 -139 -113 -225t-297 -86h-342q-10 0 -10 11v94q0 10 10 10h60q36 48 43 57v553h110v-240q0 -80 -26 -206q115 140 193.5 194.5t156.5 54.5zM330 115q139 0 225 50t86 129q0 51 -35 84.5t-88 33.5q-33 0 -65 -15.5t-69 -48.5t-83 -83
t-109 -121q-16 -19 -25 -29h163z" />
    <glyph glyph-name="uniFEC4" unicode="&#x637;" horiz-adv-x="816" arabic-form="medial" 
d="M816 115q10 0 10 -10v-94q0 -11 -10 -11q-97 0 -182 82q-112 -82 -292 -82h-342q-10 0 -10 11v94q0 10 10 10h60q36 48 43 57v553h110v-240q0 -80 -26 -206q115 140 193.5 194.5t156.5 54.5q92 0 153.5 -62t61.5 -155q0 -95 -56 -168q55 -28 120 -28zM330 115
q139 0 225 50t86 129q0 51 -35 84.5t-88 33.5q-33 0 -65 -15.5t-69 -48.5t-83 -83t-109 -121q-16 -19 -25 -29h163z" />
    <glyph glyph-name="uniFEC6" unicode="&#x638;" horiz-adv-x="885" arabic-form="final" 
d="M885 115q10 0 10 -10v-94q0 -11 -10 -11q-96 0 -181 81q-119 -81 -319 -81q-167 0 -375 45l23 108q56 -11 93 -17q12 16 40 48v541h110v-240q0 -81 -25 -201q126 142 201.5 193t157.5 51q92 0 153.5 -62t61.5 -155q0 -98 -57 -170q51 -26 117 -26zM525 632l-88 -88
l-89 88l88 88zM400 115q142 0 228 50t86 129q0 51 -35 84.5t-88 33.5q-65 0 -126.5 -52t-208.5 -216q-12 -15 -19 -22q73 -7 163 -7z" />
    <glyph glyph-name="uniFEC7" unicode="&#x638;" horiz-adv-x="792" arabic-form="initial" 
d="M537 528q92 0 153.5 -62t61.5 -155q0 -139 -113 -225t-297 -86h-342q-10 0 -10 11v94q0 10 10 10h60q36 48 43 57v553h110v-240q0 -80 -26 -206q115 140 193.5 194.5t156.5 54.5zM451 632l-88 -88l-89 88l88 88zM330 115q139 0 225 50t86 129q0 51 -35 84.5t-88 33.5
q-33 0 -65 -15.5t-69 -48.5t-83 -83t-109 -121q-16 -19 -25 -29h163z" />
    <glyph glyph-name="uniFEC8" unicode="&#x638;" horiz-adv-x="816" arabic-form="medial" 
d="M816 115q10 0 10 -10v-94q0 -11 -10 -11q-97 0 -182 82q-112 -82 -292 -82h-342q-10 0 -10 11v94q0 10 10 10h60q36 48 43 57v553h110v-240q0 -80 -26 -206q115 140 193.5 194.5t156.5 54.5q92 0 153.5 -62t61.5 -155q0 -95 -56 -168q55 -28 120 -28zM451 632l-88 -88
l-89 88l88 88zM330 115q139 0 225 50t86 129q0 51 -35 84.5t-88 33.5q-33 0 -65 -15.5t-69 -48.5t-83 -83t-109 -121q-16 -19 -25 -29h163z" />
    <glyph glyph-name="uniFECA" unicode="&#x639;" horiz-adv-x="591" arabic-form="final" 
d="M591 115q10 0 10 -10v-94q0 -11 -10 -11q-89 0 -151.5 21.5t-135.5 71.5q-39 -24 -59.5 -38t-46 -35t-36.5 -41t-11 -42q0 -45 44 -71t114 -26q116 0 230 33l32 -100q-144 -48 -276 -48q-116 0 -185 50t-69 146q0 67 48 121t131 106q-73 125 -143 198q-1 -1 -12 -6.5
t-17 -9.5l-47 94q169 114 305 114q105 0 170 -52.5t65 -130.5q0 -109 -144 -205q48 -20 88.5 -27.5t105.5 -7.5zM297 422q-52 0 -129 -32q68 -69 138 -188q61 39 92 67.5t31 58.5q0 43 -34 68.5t-98 25.5z" />
    <glyph glyph-name="uniFECB" unicode="&#x639;" horiz-adv-x="543" arabic-form="initial" 
d="M341 131q66 7 182 26l-23 -114q-230 -43 -500 -43q-10 0 -10 11v94q0 10 10 10q87 0 125 1q-82 61 -82 162q0 93 65.5 155t164.5 62q40 0 75.5 -8.5t115.5 -33.5l-32 -100q-90 28 -146 28q-60 0 -96.5 -30t-36.5 -79q0 -54 50 -99.5t138 -41.5z" />
    <glyph glyph-name="uniFECC" unicode="&#x639;" horiz-adv-x="590" arabic-form="medial" 
d="M590 115q10 0 10 -10v-94q0 -11 -10 -11q-151 0 -264 48q-74 -29 -141.5 -38.5t-184.5 -9.5q-10 2 -10 11v94q0 10 10 10q125 0 205 12q-64 105 -129 175l-28 -15l-47 94q169 114 305 114q103 0 168.5 -53t65.5 -130q0 -110 -93 -188q55 -9 143 -9zM297 379
q-53 0 -131 -32q68 -70 144 -205q53 24 85.5 63t32.5 80q0 43 -35 68.5t-96 25.5z" />
    <glyph glyph-name="uniFECE" unicode="&#x63a;" horiz-adv-x="591" arabic-form="final" 
d="M394 678l-88 -88l-89 88l88 88zM591 115q10 0 10 -10v-94q0 -11 -10 -11q-89 0 -151.5 21.5t-135.5 71.5q-39 -24 -59.5 -38t-46 -35t-36.5 -41t-11 -42q0 -45 44 -71t114 -26q116 0 230 33l32 -100q-144 -48 -276 -48q-116 0 -185 50t-69 146q0 67 48 121t131 106
q-73 125 -143 198q-1 -1 -12 -6.5t-17 -9.5l-47 94q169 114 305 114q105 0 170 -52.5t65 -130.5q0 -109 -144 -205q48 -20 88.5 -27.5t105.5 -7.5zM297 422q-52 0 -129 -32q68 -69 138 -188q61 39 92 67.5t31 58.5q0 43 -34 68.5t-98 25.5z" />
    <glyph glyph-name="uniFECF" unicode="&#x63a;" horiz-adv-x="543" arabic-form="initial" 
d="M347 634l-88 -88l-89 88l88 88zM341 131q66 7 182 26l-23 -114q-230 -43 -500 -43q-10 0 -10 11v94q0 10 10 10q87 0 125 1q-82 61 -82 162q0 93 65.5 155t164.5 62q40 0 75.5 -8.5t115.5 -33.5l-32 -100q-90 28 -146 28q-60 0 -96.5 -30t-36.5 -79q0 -54 50 -99.5
t138 -41.5z" />
    <glyph glyph-name="uniFED0" unicode="&#x63a;" horiz-adv-x="590" arabic-form="medial" 
d="M385 634l-88 -88l-89 88l88 88zM590 115q10 0 10 -10v-94q0 -11 -10 -11q-151 0 -264 48q-74 -29 -141.5 -38.5t-184.5 -9.5q-10 2 -10 11v94q0 10 10 10q125 0 205 12q-64 105 -129 175l-28 -15l-47 94q169 114 305 114q103 0 168.5 -53t65.5 -130q0 -110 -93 -188
q55 -9 143 -9zM297 379q-53 0 -131 -32q68 -70 144 -205q53 24 85.5 63t32.5 80q0 43 -35 68.5t-96 25.5z" />
    <glyph glyph-name="uniFED2" unicode="&#x641;" horiz-adv-x="953" arabic-form="final" 
d="M773 632l-88 -88l-89 88l88 88zM953 115q10 0 10 -10v-94q0 -11 -10 -11q-119 0 -255 37q-114 -34 -262 -37h-2h-136q-131 0 -199.5 62t-68.5 181q0 68 17 145l103 -17q-12 -67 -12 -108q0 -82 40.5 -115t141.5 -33h99q61 0 111 5q-67 62 -67 148q0 92 64.5 159.5
t159.5 67.5t158 -63.5t63 -163.5q0 -78 -67 -147q42 -6 112 -6zM684 379q-48 0 -79.5 -33t-31.5 -86q0 -47 28 -83.5t80 -54.5q116 32 116 134q0 55 -31 89t-82 34z" />
    <glyph glyph-name="uniFED3" unicode="&#x641;" horiz-adv-x="522" arabic-form="initial" 
d="M353 632l-88 -88l-89 88l88 88zM264 495q93 0 155.5 -66t62.5 -164q0 -120 -71 -192.5t-188 -72.5h-223q-10 2 -10 11v94q0 10 10 10h99q-14 22 -23 34q-42 62 -42 130q0 91 66 153.5t164 62.5zM226 115q67 0 106 37t39 103q0 54 -32 89t-81 35q-51 0 -82.5 -34
t-31.5 -83q0 -40 33 -90q27 -42 33 -57h16z" />
    <glyph glyph-name="uniFED4" unicode="&#x641;" horiz-adv-x="534" arabic-form="medial" 
d="M359 632l-88 -88l-89 88l88 88zM534 115q10 0 10 -10v-94q0 -11 -10 -11q-119 0 -255 37q-126 -37 -279 -37q-10 2 -10 11v94q0 10 10 10q61 0 111 5q-67 62 -67 148q0 92 64.5 159.5t159.5 67.5t158 -63.5t63 -163.5q0 -78 -67 -147q42 -6 112 -6zM265 379
q-48 0 -79.5 -33t-31.5 -86q0 -47 28 -83.5t80 -54.5q116 32 116 134q0 55 -31 89t-82 34z" />
    <glyph glyph-name="uniFED6" unicode="&#x642;" horiz-adv-x="769" arabic-form="final" 
d="M492 622l-75 -74l-89 88l88 88l76 -74l75 74l89 -88l-88 -88zM769 115q10 0 10 -10v-94q0 -11 -10 -11h-60q-16 -101 -107.5 -158t-244.5 -57q-170 0 -248.5 68.5t-78.5 210.5q0 89 44 221l96 -26q-35 -100 -35 -180q0 -96 56 -138.5t189 -42.5q93 0 149 28.5t71 73.5
h-71q-121 0 -193.5 63.5t-72.5 172.5q0 108 65.5 178.5t165.5 70.5q92 0 149 -59.5t63 -168.5q2 -36 5 -142h58zM373 240q0 -125 171 -125h59q-2 54 -8 133q-9 122 -104 122q-50 0 -84 -36.5t-34 -93.5z" />
    <glyph glyph-name="uniFED7" unicode="&#x642;" horiz-adv-x="522" arabic-form="initial" 
d="M265 622l-75 -74l-89 88l88 88l76 -74l75 74l89 -88l-88 -88zM264 495q93 0 155.5 -66t62.5 -164q0 -120 -71 -192.5t-188 -72.5h-223q-10 2 -10 11v94q0 10 10 10h99q-14 22 -23 34q-42 62 -42 130q0 91 66 153.5t164 62.5zM226 115q67 0 106 37t39 103q0 54 -32 89
t-81 35q-51 0 -82.5 -34t-31.5 -83q0 -40 33 -90q27 -42 33 -57h16z" />
    <glyph glyph-name="uniFED8" unicode="&#x642;" horiz-adv-x="534" arabic-form="medial" 
d="M265 622l-75 -74l-89 88l88 88l76 -74l75 74l89 -88l-88 -88zM534 115q10 0 10 -10v-94q0 -11 -10 -11q-119 0 -255 37q-126 -37 -279 -37q-10 2 -10 11v94q0 10 10 10q61 0 111 5q-67 62 -67 148q0 92 64.5 159.5t159.5 67.5t158 -63.5t63 -163.5q0 -78 -67 -147
q42 -6 112 -6zM265 379q-48 0 -79.5 -33t-31.5 -86q0 -47 28 -83.5t80 -54.5q116 32 116 134q0 55 -31 89t-82 34z" />
    <glyph glyph-name="uniFEDA" unicode="&#x643;" horiz-adv-x="882" arabic-form="final" 
d="M882 115q10 0 10 -10v-94q0 -11 -10 -11q-120 0 -176 71q-106 -70 -271 -71h-1h-136q-131 0 -199.5 62t-68.5 181q0 68 17 145l103 -17q-12 -67 -12 -108q0 -82 40.5 -115t141.5 -33h106q162 0 245 40q-3 18 -3 36v534h110v-526q0 -44 23 -64t81 -20zM526 343h-132
q-48 0 -106 -17v87q38 13 56 16q-22 25 -22 57q0 44 31 74t86 30q31 0 74 -21v-84q-45 14 -72 14q-19 0 -32 -9t-13 -23q0 -34 63 -34h94z" />
    <glyph glyph-name="uniFEDB" unicode="&#x643;" horiz-adv-x="578" arabic-form="initial" 
d="M356 429q192 -88 192 -223q0 -95 -71.5 -150.5t-194.5 -55.5h-282q-10 0 -10 11v94q0 10 10 10h290q66 0 107 23.5t41 60.5t-31.5 67t-107.5 64l-245 111v77l360 286l70 -84l-286 -219z" />
    <glyph glyph-name="uniFEDC" unicode="&#x643;" horiz-adv-x="645" arabic-form="medial" 
d="M645 115q10 0 10 -10v-94q0 -11 -10 -11q-84 0 -160 62q-71 -62 -203 -62h-282q-10 0 -10 11v94q0 10 10 10h290q66 0 107 23.5t41 60.5t-31.5 67t-107.5 64l-245 111v77l360 286l70 -84l-286 -219l158 -72q192 -88 192 -223q0 -36 -11 -69q48 -22 108 -22z" />
    <glyph glyph-name="uniFEDE" unicode="&#x644;" horiz-adv-x="719" arabic-form="final" 
d="M719 115q10 0 10 -10v-94q0 -11 -10 -11q-68 0 -108 38q-17 -115 -93 -184t-196 -69q-282 0 -282 279q0 89 44 221l96 -26q-35 -100 -35 -180q0 -179 185 -179q175 0 175 199v626h110v-530q0 -80 104 -80z" />
    <glyph glyph-name="uniFEDF" unicode="&#x644;" horiz-adv-x="294" arabic-form="initial" 
d="M104 725h110v-534q0 -87 -55.5 -139t-158.5 -52q-10 0 -10 11v94q0 10 10 10q58 0 81 20t23 64v526z" />
    <glyph glyph-name="uniFEE0" unicode="&#x644;" horiz-adv-x="318" arabic-form="medial" 
d="M318 115q10 0 10 -10v-94q0 -11 -10 -11q-111 0 -167 61q-31 -30 -65 -45.5t-86 -15.5q-10 0 -10 11v94q0 10 10 10q67 0 108 30q-4 20 -4 46v534h110v-526q0 -44 23 -64t81 -20z" />
    <glyph glyph-name="uniFEE2" unicode="&#x645;" horiz-adv-x="661" arabic-form="final" 
d="M661 115q10 0 10 -10v-94q0 -11 -10 -11q-91 0 -140 94l-23 -94q-193 0 -280 63q-18 13 -29 27q-49 -13 -49 -75q0 -85 30 -290h-110q-30 205 -30 298q0 65 36.5 114t95.5 66q7 59 34.5 118.5t79 104.5t113.5 45q127 0 167 -152l23 -86q17 -64 35 -91t47 -27zM249 175
q49 -29 107 -44t155 -16q-13 31 -32 91l-15 50q-28 99 -84 99q-38 0 -74.5 -48.5t-56.5 -131.5z" />
    <glyph glyph-name="uniFEE3" unicode="&#x645;" horiz-adv-x="573" arabic-form="initial" 
d="M523 116l-82 -129q-198 0 -336 63q-39 -50 -105 -50q-10 2 -10 11v94q0 10 10 10q29 0 44.5 26t55.5 131q39 101 89 150t128 49q183 0 206 -355zM158 151q111 -49 261 -47q-7 122 -36 186.5t-73 64.5q-41 0 -69.5 -33t-60.5 -116z" />
    <glyph glyph-name="uniFEE4" unicode="&#x645;" horiz-adv-x="561" arabic-form="medial" 
d="M561 115q10 0 10 -10v-94q0 -11 -10 -11q-91 0 -140 94l-23 -94q-174 0 -263 52q-61 -52 -135 -52q-10 0 -10 11v94q0 10 10 10q40 0 69 10q-9 23 -9 49q0 42 16 92t44 96.5t73 77.5t96 31q127 0 167 -152l23 -86q17 -64 35 -91t47 -27zM149 175q49 -29 107 -44t155 -16
q-13 31 -32 91l-15 50q-28 99 -84 99q-38 0 -74.5 -48.5t-56.5 -131.5z" />
    <glyph glyph-name="uniFEE6" unicode="&#x646;" horiz-adv-x="711" arabic-form="final" 
d="M386 470l-88 -88l-89 88l88 88zM711 115q10 0 10 -10v-94q0 -11 -10 -11q-75 0 -103 46q-14 -119 -89 -190t-197 -71q-282 0 -282 279q0 89 44 221l96 -26q-35 -100 -35 -180q0 -179 185 -179q175 0 175 199q0 17 -0.5 35t-3 42.5t-4 39t-6.5 50t-7 49.5t-9.5 61t-9.5 64
h110q23 -147 31 -232l4 -33q4 -32 28.5 -46t72.5 -14z" />
    <glyph glyph-name="uniFEE7" unicode="&#x646;" horiz-adv-x="264" arabic-form="initial" 
d="M124 720l89 -88l-88 -88l-89 88zM184 485q30 -205 30 -294q0 -87 -55.5 -139t-158.5 -52q-10 0 -10 11v94q0 10 10 10q58 0 81 20t23 64q0 81 -30 286h110z" />
    <glyph glyph-name="uniFEE8" unicode="&#x646;" horiz-adv-x="300" arabic-form="medial" 
d="M248 527l-88 -88l-89 88l88 88zM300 115q10 0 10 -10v-94q0 -11 -10 -11q-80 0 -155 59q-53 -59 -145 -59q-10 0 -10 11v94q0 10 10 10q67 0 90 50q23 51 23 205h102q0 -146 -27 -231q49 -24 112 -24z" />
    <glyph glyph-name="uniFEE9" unicode="&#x647;" horiz-adv-x="832" arabic-form="isolated" 
d="M309 680q225 0 354 -101t129 -280q0 -80 -48 -212l-107 -100q-134 0 -278 52q-111 -39 -219 -39q-56 0 -130 22l23 107q55 -14 102 -14q26 0 49 4q-69 63 -69 149q0 92 64.5 159.5t159.5 67.5t158 -63.5t63 -163.5q0 -82 -73 -153q68 -12 150 -12q44 102 44 190
q0 124 -99.5 198t-272.5 74v115zM336 379q-48 0 -79.5 -33t-31.5 -86q0 -47 28 -83.5t80 -54.5q116 32 116 134q0 55 -31 89t-82 34z" />
    <glyph glyph-name="uniFEEA" unicode="&#x647;" horiz-adv-x="535" arabic-form="final" 
d="M535 115q10 0 10 -10v-94q0 -11 -10 -11q-89 0 -136 53q-91 -53 -161 -53q-95 0 -151.5 51t-56.5 139q0 42 15 84t48.5 85t99 76.5t155.5 47.5v55h110v-345q0 -39 17 -58.5t60 -19.5zM240 114q57 0 116 22q-8 35 -8 72v169q-99 -17 -153.5 -64t-54.5 -114q0 -41 26 -63
t74 -22z" />
    <glyph glyph-name="uniFEEB" unicode="&#x647;" horiz-adv-x="761" arabic-form="initial" 
d="M238 680q225 0 354 -101t129 -280q0 -80 -48 -212l-107 -100q-135 0 -279 53q-125 -40 -287 -40q-10 2 -10 11v94q0 10 10 10q61 0 111 5q-67 62 -67 148q0 92 64.5 159.5t159.5 67.5t158 -63.5t63 -163.5q0 -81 -74 -153q69 -12 151 -12q44 102 44 190q0 124 -99.5 198
t-272.5 74v115zM265 379q-48 0 -79.5 -33t-31.5 -86q0 -47 28 -83.5t80 -54.5q116 32 116 134q0 55 -31 89t-82 34z" />
    <glyph glyph-name="uniFEEC" unicode="&#x647;" horiz-adv-x="553" arabic-form="medial" 
d="M553 115q10 0 10 -11v-94q0 -10 -10 -10q-40 0 -88 16q37 -44 37 -84q0 -66 -47.5 -106.5t-126.5 -40.5q-100 0 -169.5 58t-93.5 159q-44 -2 -65 -2q-10 0 -10 11v94q0 10 10 10q36 0 53 1q2 134 57 253.5t152 200.5h87q150 -131 150 -282q0 -93 -63 -159q50 -14 117 -14
zM157 132v-7q117 17 174.5 58.5t57.5 101.5q0 108 -97 188q-59 -51 -97 -145t-38 -196zM323 -101q79 0 79 54q0 50 -54 113q-73 -36 -171 -53q21 -54 59.5 -84t86.5 -30z" />
    <glyph glyph-name="uniFEEE" unicode="&#x648;" horiz-adv-x="546" arabic-form="final" 
d="M546 115q10 0 10 -10v-94q0 -11 -10 -11h-59q-12 -99 -100 -157t-263 -58v105q108 0 172.5 30t80.5 80h-71q-121 0 -193.5 63.5t-72.5 172.5q0 108 65.5 178.5t165.5 70.5q92 0 149 -59.5t63 -168.5q3 -52 4 -142h59zM150 240q0 -125 171 -125h59q-2 49 -8 133
q-9 122 -104 122q-50 0 -84 -36.5t-34 -93.5z" />
    <glyph glyph-name="uniFEF0" unicode="&#x649;" horiz-adv-x="676" arabic-form="final" 
d="M676 115q10 0 10 -10v-94q0 -11 -10 -11h-3q-41 -103 -136.5 -159t-229.5 -56q-125 0 -201 73t-76 206q0 89 44 221l96 -26q-35 -100 -35 -180q0 -179 198 -179q83 0 145.5 29t95.5 82q-11 2 -24.5 5.5t-34 8.5t-35.5 9v110q135 -29 196 -29z" />
    <glyph glyph-name="uniFEF2" unicode="&#x64a;" horiz-adv-x="676" arabic-form="final" 
d="M676 115q10 0 10 -10v-94q0 -11 -10 -11h-3q-41 -103 -136.5 -159t-229.5 -56q-125 0 -201 73t-76 206q0 89 44 221l96 -26q-35 -100 -35 -180q0 -179 198 -179q83 0 145.5 29t95.5 82q-11 2 -24.5 5.5t-34 8.5t-35.5 9v110q135 -29 196 -29zM388 -335l75 74l89 -88
l-88 -88l-76 74l-75 -74l-89 88l88 88z" />
    <glyph glyph-name="uniFEF3" unicode="&#x64a;" horiz-adv-x="339" arabic-form="initial" 
d="M0 0q-10 0 -10 11v94q0 10 10 10h80q58 0 81 20t23 64q0 81 -30 286h110q30 -205 30 -294q0 -87 -55.5 -139t-158.5 -52h-80zM307 -153l-88 -88l-76 74l-75 -74l-89 88l88 88l76 -74l75 74z" />
    <glyph glyph-name="uniFEF4" unicode="&#x64a;" horiz-adv-x="370" arabic-form="medial" 
d="M370 115q10 0 10 -10v-94q0 -11 -10 -11q-91 0 -180 75q-57 -75 -190 -75q-10 0 -10 11v94q0 10 10 10q90 0 119 48q17 28 21.5 73.5t4.5 133.5h102q0 -142 -19 -215q70 -40 142 -40zM166 -140l75 74l89 -88l-88 -88l-76 74l-75 -74l-89 88l88 88z" />
    <glyph glyph-name=".notdef" horiz-adv-x="600" 
 />
    <glyph glyph-name=".null" horiz-adv-x="600" 
 />
    <glyph glyph-name="nonmarkingreturn" horiz-adv-x="333" 
 />
    <glyph glyph-name="CR" unicode="&#xd;" horiz-adv-x="600" 
 />
    <glyph glyph-name="space" unicode=" " horiz-adv-x="230" 
 />
    <glyph glyph-name="exclam" unicode="!" horiz-adv-x="250" 
d="M87 213l-22 313v199h120v-199l-20 -313h-78zM57 0v136h136v-136h-136z" />
    <glyph glyph-name="quotedbl" unicode="&#x22;" horiz-adv-x="337" 
d="M151 725l-20 -257h-88l-20 257h128zM314 725l-20 -257h-88l-20 257h128z" />
    <glyph glyph-name="numbersign" unicode="#" horiz-adv-x="712" 
d="M206 550l24 175h104l-24 -175h142l24 175h105l-24 -175h136l-12 -94h-137l-23 -165h136l-11 -93h-138l-27 -198h-105l27 198h-142l-27 -198h-104l27 198h-138l12 93h139l23 165h-138l10 94h141zM274 291h142l23 165h-142z" />
    <glyph glyph-name="dollar" unicode="$" horiz-adv-x="620" 
d="M335 810v-73q101 -9 164 -69t67 -153l-118 -14q-1 64 -32.5 101t-80.5 45v-226l11 -2q48 -12 83 -25.5t72.5 -37t57.5 -62.5t20 -90q0 -98 -70 -154t-174 -62v-84h-56v84q-105 9 -171.5 74t-68.5 164l118 11q0 -70 35 -111t87 -47v245l-32 8q-194 50 -194 207
q0 89 66.5 140t159.5 58v73h56zM272 436l7 -2v215q-46 -2 -78.5 -30t-32.5 -76q0 -83 104 -107zM335 310v-232q56 2 92.5 32.5t36.5 83.5q0 48 -31 72.5t-98 43.5z" />
    <glyph glyph-name="percent" unicode="%" horiz-adv-x="1045" 
d="M37 522q0 98 44 154t127 56q82 0 126 -56t44 -154t-44 -155t-126 -57q-83 0 -127 57t-44 155zM209 0l500 725h126l-500 -725h-126zM289 522q0 145 -81 145q-82 0 -82 -145q0 -73 21.5 -110.5t60.5 -37.5q38 0 59.5 37.5t21.5 110.5zM667 205q0 98 44 154t127 56
q82 0 126 -56t44 -154t-44 -155t-126 -57q-83 0 -127 57t-44 155zM919 205q0 145 -81 145q-82 0 -82 -145q0 -73 21.5 -110.5t60.5 -37.5q38 0 59.5 37.5t21.5 110.5z" />
    <glyph glyph-name="ampersand" unicode="&#x26;" horiz-adv-x="706" 
d="M22 201q0 78 49 132t127 82q-77 90 -77 165q0 72 57 115t145 43q79 0 136.5 -39t57.5 -121q0 -61 -38.5 -109.5t-101.5 -77.5l116 -125q23 61 28 135h120q-13 -120 -70 -220l167 -181h-163l-77 84q-99 -97 -234 -97q-108 0 -175 61t-67 153zM315 459l1 -1q88 39 88 116
q0 35 -22.5 54.5t-57.5 19.5q-33 0 -56 -17.5t-23 -47.5q0 -50 70 -124zM431 158l-170 187q-115 -44 -115 -137q0 -57 37 -90.5t102 -33.5q82 0 146 74z" />
    <glyph glyph-name="quotesingle" unicode="'" horiz-adv-x="174" 
d="M151 725l-20 -257h-88l-20 257h128z" />
    <glyph glyph-name="parenleft" unicode="(" horiz-adv-x="268" 
d="M167 725h106q-54 -88 -87.5 -206t-33.5 -249q0 -256 121 -456h-106q-55 82 -96.5 201.5t-41.5 254.5t41.5 254.5t96.5 200.5z" />
    <glyph glyph-name="parenright" unicode=")" horiz-adv-x="267" 
d="M100 -186h-105q121 200 121 456q0 131 -33.5 249t-87.5 206h105q55 -79 96.5 -199t41.5 -256t-41.5 -256t-96.5 -200z" />
    <glyph glyph-name="asterisk" unicode="*" horiz-adv-x="372" 
d="M220 614l104 40l29 -74l-106 -37l63 -89l-61 -47l-69 92l-62 -92l-68 46l64 89l-105 38l28 74l103 -40v111h80v-111z" />
    <glyph glyph-name="plus" unicode="+" horiz-adv-x="688" 
d="M290 0v214h-221v107h221v215h110v-215h220v-107h-220v-214h-110z" />
    <glyph glyph-name="comma" unicode="," horiz-adv-x="250" 
d="M57 136h136v-146l-70 -148h-71l66 158h-61v136z" />
    <glyph glyph-name="hyphen" unicode="-" horiz-adv-x="432" 
d="M53 216v107h326v-107h-326z" />
    <glyph glyph-name="period" unicode="." horiz-adv-x="250" 
d="M57 0v136h136v-136h-136z" />
    <glyph glyph-name="slash" unicode="/" horiz-adv-x="396" 
d="M0 0l282 725h114l-282 -725h-114z" />
    <glyph glyph-name="zero" unicode="0" horiz-adv-x="666" 
d="M45 363q0 172 73.5 273.5t214.5 101.5t215 -101.5t74 -273.5q0 -173 -74 -274.5t-215 -101.5t-214.5 101.5t-73.5 274.5zM498 363q0 137 -43 210.5t-122 73.5q-78 0 -121 -73.5t-43 -210.5t43 -210.5t121 -73.5q79 0 122 73.5t43 210.5z" />
    <glyph glyph-name="one" unicode="1" horiz-adv-x="366" 
d="M167 0v552h-162v82q59 2 90 7.5t58 25t45 58.5h88v-725h-119z" />
    <glyph glyph-name="two" unicode="2" horiz-adv-x="585" 
d="M539 546q0 -106 -92.5 -212t-270.5 -230h380v-104h-528v98q205 160 296 257t91 181q0 52 -31.5 81.5t-85.5 29.5q-58 0 -96.5 -37.5t-38.5 -116.5l-119 17q5 103 75 165.5t184 62.5q104 0 170 -51t66 -141z" />
    <glyph glyph-name="three" unicode="3" horiz-adv-x="611" 
d="M444 204q0 125 -181 125h-35v99h30q168 0 168 112q0 52 -36 79.5t-90 27.5q-126 0 -148 -136l-113 22q15 94 85.5 149.5t182.5 55.5q101 0 171 -48t70 -143q0 -53 -28.5 -96t-77.5 -67q62 -23 93.5 -70.5t31.5 -106.5q0 -106 -78 -163t-194 -57q-113 0 -182 60.5
t-83 153.5l113 22q11 -65 49 -104.5t105 -39.5q65 0 106 33.5t41 91.5z" />
    <glyph glyph-name="four" unicode="4" horiz-adv-x="630" 
d="M618 170h-128v-170h-119v170h-358v99l359 456h118v-452h128v-103zM143 273h228v297z" />
    <glyph glyph-name="five" unicode="5" horiz-adv-x="614" 
d="M36 201l113 22q11 -65 49 -104.5t105 -39.5q62 0 102.5 41.5t40.5 112.5q0 76 -43.5 117.5t-102.5 41.5q-49 0 -84 -21.5t-47 -54.5l-112 6l48 403h434v-105h-336l-23 -182q56 45 150 45q99 0 169 -66t70 -182q0 -117 -77 -182.5t-191 -65.5q-113 0 -182 60.5t-83 153.5z
" />
    <glyph glyph-name="six" unicode="6" horiz-adv-x="627" 
d="M166 399q58 83 174 83q103 0 172 -68t69 -179q0 -109 -73.5 -178.5t-190.5 -69.5q-137 0 -204.5 94.5t-67.5 259.5q0 82 15.5 151t48.5 125.5t90 88.5t134 32q102 0 161 -53t71 -129l-119 -13q-6 51 -39 77.5t-83 26.5q-73 0 -114.5 -67.5t-43.5 -180.5zM316 79
q63 0 102.5 41.5t39.5 112.5q0 70 -39.5 112.5t-101.5 42.5t-102 -42.5t-40 -112.5q0 -71 39 -112.5t102 -41.5z" />
    <glyph glyph-name="seven" unicode="7" horiz-adv-x="508" 
d="M2 725h521v-105q-143 -136 -215.5 -281t-84.5 -339h-135q9 183 91.5 340t217.5 280h-395v105z" />
    <glyph glyph-name="eight" unicode="8" horiz-adv-x="644" 
d="M569 552q0 -110 -93 -165q115 -59 115 -181q0 -104 -75.5 -161.5t-194.5 -57.5t-194.5 57.5t-75.5 161.5q0 124 115 181q-46 26 -69.5 71t-23.5 94q0 82 67.5 134t180.5 52q112 0 180 -52t68 -134zM321 647q-59 0 -95 -29.5t-36 -80.5q0 -52 36 -83.5t95 -31.5t94.5 31.5
t35.5 83.5q0 51 -35 80.5t-95 29.5zM175 210q0 -61 39.5 -96t106.5 -35t106.5 35t39.5 96t-39.5 96t-106.5 35t-106.5 -35t-39.5 -96z" />
    <glyph glyph-name="nine" unicode="9" horiz-adv-x="619" 
d="M453 326q-58 -83 -174 -83q-103 0 -172 68t-69 180q0 108 73.5 177.5t190.5 69.5q137 0 204.5 -94.5t67.5 -259.5q0 -65 -9.5 -122t-31.5 -108t-54.5 -87.5t-82 -58t-111.5 -21.5q-101 0 -160 52.5t-71 128.5l119 14q6 -51 38.5 -77t83.5 -26q73 0 114.5 67t43.5 180z
M303 647q-63 0 -102.5 -41.5t-39.5 -113.5q0 -70 39.5 -112.5t101.5 -42.5t102 42.5t40 112.5q0 71 -39.5 113t-101.5 42z" />
    <glyph glyph-name="colon" unicode=":" horiz-adv-x="250" 
d="M57 392v136h136v-136h-136zM57 0v136h136v-136h-136z" />
    <glyph glyph-name="semicolon" unicode=";" horiz-adv-x="254" 
d="M57 392v136h136v-136h-136zM57 136h136v-146l-70 -148h-71l66 158h-61v136z" />
    <glyph glyph-name="less" unicode="&#x3c;" horiz-adv-x="688" 
d="M597 540v-120l-378 -153l378 -152v-119l-515 221v100z" />
    <glyph glyph-name="equal" unicode="=" horiz-adv-x="688" 
d="M91 318v108h506v-108h-506zM91 111v107h506v-107h-506z" />
    <glyph glyph-name="greater" unicode="&#x3e;" horiz-adv-x="688" 
d="M606 217l-515 -221v119l379 152l-379 153v120l515 -223v-100z" />
    <glyph glyph-name="question" unicode="?" horiz-adv-x="524" 
d="M510 560q0 -119 -126 -195q-53 -32 -72 -55t-19 -69v-31h-119v34q0 66 26.5 105t86.5 75q49 30 75 59.5t26 69.5q0 41 -33.5 65t-82.5 24q-66 0 -102 -36t-38 -99l-118 11q4 100 76.5 160t183.5 60q97 0 166.5 -46t69.5 -132zM166 0v136h136v-136h-136z" />
    <glyph glyph-name="at" unicode="@" horiz-adv-x="835" 
d="M507 245q-48 -89 -146 -89q-68 0 -112 46t-44 135q0 92 57 161t149 69q41 0 71.5 -20.5t44.5 -55.5q1 7 3.5 28t4.5 31h71l-29 -218q-4 -20 -4 -40q0 -67 46 -67q40 0 67.5 48t27.5 129q0 122 -76 187.5t-202 65.5q-137 0 -224 -88t-87 -221q0 -128 76 -206.5t200 -78.5
q102 0 190 44l28 -69q-99 -49 -218 -49q-157 0 -256.5 101.5t-99.5 260.5q0 160 113 268t280 108q100 0 177.5 -33t126.5 -106.5t49 -179.5q0 -116 -53.5 -184.5t-125.5 -68.5q-41 0 -70 24t-35 68zM294 334q0 -103 83 -103q57 0 90 47t33 116q0 46 -23 71t-64 25
q-54 0 -86.5 -45.5t-32.5 -110.5z" />
    <glyph glyph-name="A" unicode="A" horiz-adv-x="686" 
d="M275 725h134l272 -725h-139l-57 161h-294l-56 -161h-130zM228 267h219l-110 311z" />
    <glyph glyph-name="B" unicode="B" horiz-adv-x="677" 
d="M78 725h273q261 0 261 -185q0 -49 -23.5 -92t-57.5 -63q109 -49 109 -170q0 -110 -75 -162.5t-196 -52.5h-291v725zM205 422h158q120 0 120 104q0 47 -32.5 72t-87.5 25h-158v-201zM205 102h169q135 0 135 113q0 110 -142 110h-162v-223z" />
    <glyph glyph-name="C" unicode="C" horiz-adv-x="736" 
d="M691 215q-28 -109 -108 -168.5t-199 -59.5q-157 0 -246 103t-89 275q0 171 92 272t249 101q115 0 194 -59.5t106 -168.5l-117 -26q-16 72 -65.5 111t-121.5 39q-90 0 -148 -71t-58 -198q0 -128 57.5 -201t147.5 -73q75 0 124.5 38.5t65.5 111.5z" />
    <glyph glyph-name="D" unicode="D" horiz-adv-x="729" 
d="M276 725q91 0 161 -17.5t127 -57t87 -112t30 -175.5t-30 -175.5t-87 -112.5t-127 -57.5t-161 -17.5h-198v725h198zM270 623h-65v-521h65q60 0 103.5 9t86.5 34.5t66 80.5t23 137t-23 136.5t-66 80t-86.5 34.5t-103.5 9z" />
    <glyph glyph-name="E" unicode="E" horiz-adv-x="625" 
d="M78 725h513v-106h-386v-194h365v-105h-365v-213h386v-107h-513v725z" />
    <glyph glyph-name="F" unicode="F" horiz-adv-x="590" 
d="M78 725h506v-106h-379v-194h357v-105h-357v-320h-127v725z" />
    <glyph glyph-name="G" unicode="G" horiz-adv-x="774" 
d="M697 521l-115 -26q-18 67 -67 103t-121 36q-96 0 -155 -70t-59 -199q0 -130 57.5 -202t155.5 -72q35 0 67 8.5t61.5 26.5t47.5 52t18 80v14h-185v107h303v-379h-100l-4 87q-67 -100 -222 -100q-153 0 -241.5 103t-88.5 275q0 170 94 271.5t254 101.5q115 0 193.5 -57
t106.5 -160z" />
    <glyph glyph-name="H" unicode="H" horiz-adv-x="756" 
d="M678 725v-725h-127v320h-346v-320h-127v725h127v-300h346v300h127z" />
    <glyph glyph-name="I" unicode="I" horiz-adv-x="283" 
d="M205 0h-127v725h127v-725z" />
    <glyph glyph-name="J" unicode="J" horiz-adv-x="591" 
d="M16 227l126 18q0 -75 32 -114.5t91 -39.5q58 0 89.5 39.5t31.5 114.5v480h127v-480q0 -119 -65 -188.5t-183 -69.5q-115 0 -179.5 64t-69.5 176z" />
    <glyph glyph-name="K" unicode="K" horiz-adv-x="656" 
d="M656 0h-169l-282 315v-315h-127v725h127v-352l289 352h145l-304 -365z" />
    <glyph glyph-name="L" unicode="L" horiz-adv-x="575" 
d="M205 107h365v-107h-492v725h127v-618z" />
    <glyph glyph-name="M" unicode="M" horiz-adv-x="901" 
d="M386 0l-184 587v-587h-124v725h197l176 -578l175 578h197v-725h-124v587l-184 -587h-129z" />
    <glyph glyph-name="N" unicode="N" horiz-adv-x="756" 
d="M508 0l-307 579v-579h-123v725h170l307 -579v579h123v-725h-170z" />
    <glyph glyph-name="O" unicode="O" horiz-adv-x="790" 
d="M395 -13q-158 0 -252 103.5t-94 272.5t94 272t252 103t252 -103t94 -272t-94 -272.5t-252 -103.5zM395 91q94 0 154.5 72t60.5 200t-60.5 199.5t-154.5 71.5t-154.5 -71.5t-60.5 -199.5t60.5 -200t154.5 -72z" />
    <glyph glyph-name="P" unicode="P" horiz-adv-x="641" 
d="M317 725q54 0 94 -4t82.5 -18t69.5 -38t44.5 -66.5t17.5 -101.5q0 -66 -23 -111.5t-67 -69t-95.5 -33t-120.5 -9.5h-114v-274h-127v725h239zM205 623v-245h118q84 0 127 23.5t43 94.5q0 42 -14 69t-42 39t-54 15.5t-66 3.5h-112z" />
    <glyph glyph-name="Q" unicode="Q" horiz-adv-x="790" 
d="M632 76l86 -102l-78 -65l-92 109q-68 -31 -153 -31q-158 0 -252 103.5t-94 272.5t94 272t252 103t252 -103t94 -272q0 -184 -109 -287zM395 91q44 0 79 16l-59 71l77 65l62 -74q56 76 56 194q0 128 -60.5 199.5t-154.5 71.5t-154.5 -71.5t-60.5 -199.5t60.5 -200
t154.5 -72z" />
    <glyph glyph-name="R" unicode="R" horiz-adv-x="689" 
d="M366 306q-12 -1 -38 -1h-123v-305h-127v725h231q168 0 245.5 -46t77.5 -163q0 -140 -136 -187l166 -329h-143zM205 623v-217h126q87 0 129 23.5t42 85.5q0 65 -44 86.5t-131 21.5h-122z" />
    <glyph glyph-name="S" unicode="S" horiz-adv-x="658" 
d="M260 329q-94 19 -151.5 69t-57.5 136q0 96 82.5 150t191.5 54q105 0 179.5 -49.5t99.5 -146.5l-117 -24q-15 60 -62 88t-107 28q-51 0 -95 -24t-44 -72q0 -75 108 -96l89 -17q54 -11 93.5 -24.5t77 -38t57.5 -63.5t20 -91q0 -103 -86 -162t-202 -59q-122 0 -202 61.5
t-100 168.5l122 26q34 -152 186 -152q67 0 111 29t44 80q0 84 -149 112z" />
    <glyph glyph-name="T" unicode="T" horiz-adv-x="603" 
d="M238 619h-228v106h583v-106h-228v-619h-127v619z" />
    <glyph glyph-name="U" unicode="U" horiz-adv-x="727" 
d="M194 725v-428q0 -106 36.5 -156t133.5 -50q95 0 132 52t37 158v424h127v-419q0 -171 -68.5 -245t-227.5 -74t-228 71t-69 244v423h127z" />
    <glyph glyph-name="V" unicode="V" horiz-adv-x="647" 
d="M144 725l184 -575l179 575h134l-248 -725h-136l-251 725h138z" />
    <glyph glyph-name="W" unicode="W" horiz-adv-x="906" 
d="M651 164l110 561h133l-169 -725h-150l-122 556l-120 -556h-152l-170 725h138l116 -560l115 560h147z" />
    <glyph glyph-name="X" unicode="X" horiz-adv-x="673" 
d="M262 371l-250 354h152l174 -247l178 247h144l-250 -348l267 -377h-152l-192 271l-195 -271h-143z" />
    <glyph glyph-name="Y" unicode="Y" horiz-adv-x="653" 
d="M145 725l180 -324l185 324h143l-267 -445v-280h-127v282l-259 443h145z" />
    <glyph glyph-name="Z" unicode="Z" horiz-adv-x="636" 
d="M593 622l-405 -512h417v-110h-572v103l406 512h-374v110h528v-103z" />
    <glyph glyph-name="bracketleft" unicode="[" horiz-adv-x="339" 
d="M319 725v-91h-135v-718h135v-91h-244v900h244z" />
    <glyph glyph-name="backslash" unicode="\" horiz-adv-x="396" 
d="M396 0h-114l-282 725h114z" />
    <glyph glyph-name="bracketright" unicode="]" horiz-adv-x="339" 
d="M264 725v-900h-244v91h136v718h-136v91h244z" />
    <glyph glyph-name="asciicircum" unicode="^" horiz-adv-x="520" 
d="M510 338h-120l-131 259l-131 -259h-119l200 387h100z" />
    <glyph glyph-name="underscore" unicode="_" horiz-adv-x="488" 
d="M31 -108v108h426v-108h-426z" />
    <glyph glyph-name="grave" unicode="`" horiz-adv-x="279" 
d="M22 725h141l94 -116h-93z" />
    <glyph glyph-name="a" unicode="a" horiz-adv-x="579" 
d="M239 -13q-88 0 -143.5 45t-55.5 117q0 76 61 115t177 54l63 9q35 6 48 18.5t13 36.5q0 36 -28.5 55t-79.5 19q-54 0 -85 -24.5t-33 -72.5l-116 12q11 78 74 125.5t158 47.5q233 0 229 -225q0 -11 -1 -59.5t-1 -75.5q0 -112 16 -184h-110q-8 49 -10 77q-49 -90 -176 -90z
M404 234v25q-14 -4 -95 -18q-75 -11 -109 -32t-34 -57q0 -34 27 -55t72 -21q139 0 139 158z" />
    <glyph glyph-name="b" unicode="b" horiz-adv-x="617" 
d="M191 725v-269q51 84 160 84q101 0 166 -75t65 -201q0 -127 -65 -202t-166 -75q-109 0 -160 84v-71h-119v725h119zM325 84q62 0 97.5 47.5t35.5 132.5t-35.5 132t-97.5 47t-100.5 -45t-38.5 -134t38.5 -134.5t100.5 -45.5z" />
    <glyph glyph-name="c" unicode="c" horiz-adv-x="569" 
d="M529 370l-110 -24q-9 43 -41 69t-84 26q-60 0 -97.5 -44t-37.5 -133t37.5 -133.5t97.5 -44.5q107 0 129 96l110 -24q-24 -81 -90 -126t-151 -45q-117 0 -186.5 77.5t-69.5 198.5t70.5 199t190.5 78q84 0 147 -46t85 -124z" />
    <glyph glyph-name="d" unicode="d" horiz-adv-x="617" 
d="M426 725h119v-725h-119v71q-51 -84 -160 -84q-101 0 -166 75t-65 202q0 126 65 201t166 75q109 0 160 -84v269zM292 443q-62 0 -97.5 -47t-35.5 -132t35.5 -132.5t97.5 -47.5t100.5 45.5t38.5 134.5t-38.5 134t-100.5 45z" />
    <glyph glyph-name="e" unicode="e" horiz-adv-x="589" 
d="M297 540q124 0 193.5 -85.5t61.5 -222.5h-395q2 -69 44.5 -107.5t101.5 -38.5q100 0 131 76l109 -22q-25 -69 -86 -111t-153 -42q-127 0 -197.5 80.5t-70.5 200.5t72.5 196t188.5 76zM157 319h274q-2 59 -40 93.5t-94 34.5q-52 0 -93 -31.5t-47 -96.5z" />
    <glyph glyph-name="f" unicode="f" horiz-adv-x="333" 
d="M248 729q33 0 69 -6l-6 -93q-29 3 -48 3q-26 0 -41 -14t-15 -52v-39h106v-86h-106v-442h-119v442h-75v86h75v41q0 160 160 160z" />
    <glyph glyph-name="g" unicode="g" horiz-adv-x="615" 
d="M425 528h119v-474q0 -129 -64 -188.5t-192 -59.5q-88 0 -148.5 36.5t-78.5 111.5l115 17q11 -39 38 -55t80 -16q73 0 102 35t29 95v63q-51 -84 -160 -84q-101 0 -166 71.5t-65 194.5t65 194t166 71q109 0 160 -84v72zM291 445q-63 0 -98 -44.5t-35 -125.5q0 -82 35 -127
t98 -45q62 0 100.5 43t38.5 129t-38.5 128t-100.5 42z" />
    <glyph glyph-name="h" unicode="h" horiz-adv-x="599" 
d="M191 453q48 87 163 87q183 0 183 -212v-328h-119v299q0 25 -2 43.5t-8 38.5t-16.5 32.5t-30 21t-45.5 8.5q-125 0 -125 -167v-276h-119v725h119v-272z" />
    <glyph glyph-name="i" unicode="i" horiz-adv-x="263" 
d="M191 725v-120h-119v120h119zM191 528v-528h-119v528h119z" />
    <glyph glyph-name="j" unicode="j" horiz-adv-x="263" 
d="M191 725v-120h-119v120h119zM72 528h119v-563q0 -75 -36.5 -109.5t-112.5 -34.5q-35 0 -71 6l8 89q23 -4 43 -4q26 0 38 12.5t12 46.5v557z" />
    <glyph glyph-name="k" unicode="k" horiz-adv-x="545" 
d="M545 0h-147l-207 246v-246h-119v725h119v-439l210 242h136l-221 -253z" />
    <glyph glyph-name="l" unicode="l" horiz-adv-x="263" 
d="M191 0h-119v725h119v-725z" />
    <glyph glyph-name="m" unicode="m" horiz-adv-x="917" 
d="M191 0h-119v528h119v-75q48 87 156 87q117 0 157 -95q64 95 175 95q176 0 176 -212v-328h-119v299q0 33 -2.5 54.5t-11.5 44t-29 34t-52 11.5q-118 0 -118 -167v-276h-119v299q0 33 -2.5 54.5t-11.5 44t-29 34t-52 11.5q-118 0 -118 -167v-276z" />
    <glyph glyph-name="n" unicode="n" horiz-adv-x="599" 
d="M191 453q48 87 163 87q183 0 183 -212v-328h-119v299q0 25 -2 43.5t-8 38.5t-16.5 32.5t-30 21t-45.5 8.5q-125 0 -125 -167v-276h-119v528h119v-75z" />
    <glyph glyph-name="o" unicode="o" horiz-adv-x="596" 
d="M560 263q0 -135 -77 -205.5t-185 -70.5t-185 70.5t-77 205.5t77 206t185 71t185 -71t77 -206zM437 263q0 87 -39.5 133.5t-99.5 46.5t-99.5 -46.5t-39.5 -133.5t39.5 -133t99.5 -46t99.5 46t39.5 133z" />
    <glyph glyph-name="p" unicode="p" horiz-adv-x="617" 
d="M191 528v-72q51 84 160 84q101 0 166 -75t65 -201q0 -127 -65 -202t-166 -75q-109 0 -160 84v-246h-119v703h119zM325 84q62 0 97.5 47.5t35.5 132.5t-35.5 132t-97.5 47t-100.5 -45t-38.5 -134t38.5 -134.5t100.5 -45.5z" />
    <glyph glyph-name="q" unicode="q" horiz-adv-x="617" 
d="M426 528h119v-703h-119v246q-51 -84 -160 -84q-101 0 -166 75t-65 202q0 126 65 201t166 75q109 0 160 -84v72zM292 443q-62 0 -97.5 -47t-35.5 -132t35.5 -132.5t97.5 -47.5t100.5 45.5t38.5 134.5t-38.5 134t-100.5 45z" />
    <glyph glyph-name="r" unicode="r" horiz-adv-x="379" 
d="M366 407q-30 3 -57 3q-60 0 -89 -30.5t-29 -107.5v-272h-119v528h117v-96q46 95 146 97q13 0 31 -2v-120z" />
    <glyph glyph-name="s" unicode="s" horiz-adv-x="536" 
d="M383 371q-19 78 -124 78q-42 0 -71 -15t-29 -40q0 -48 78 -64l73 -15q94 -19 143.5 -53t49.5 -104q0 -80 -66 -125.5t-164 -45.5q-96 0 -159 46.5t-78 120.5l111 23q18 -100 130 -100q50 0 80 18t30 49q0 52 -96 72l-81 17q-77 16 -120 51.5t-43 103.5t63.5 110t156.5 42
q80 0 142 -39t82 -108z" />
    <glyph glyph-name="t" unicode="t" horiz-adv-x="350" 
d="M208 144q0 -33 13.5 -46t40.5 -13q20 0 43 4l8 -89q-36 -6 -71 -6q-77 0 -115 34.5t-38 109.5v304h-80v86h80v142h119v-142h108v-86h-108v-298z" />
    <glyph glyph-name="u" unicode="u" horiz-adv-x="595" 
d="M404 74q-48 -87 -159 -87q-180 0 -180 212v329h119v-300q0 -32 3 -54t12.5 -44.5t30.5 -34t53 -11.5q121 0 121 167v277h119v-528h-119v74z" />
    <glyph glyph-name="v" unicode="v" horiz-adv-x="512" 
d="M260 154l123 374h124l-194 -528h-112l-196 528h131z" />
    <glyph glyph-name="w" unicode="w" horiz-adv-x="744" 
d="M310 528h123l93 -372l79 372h129l-143 -528h-113l-106 388l-106 -388h-113l-143 528h129l79 -372z" />
    <glyph glyph-name="x" unicode="x" horiz-adv-x="545" 
d="M536 0h-140l-127 178l-129 -178h-131l196 269l-185 259h140l116 -162l118 162h130l-184 -253z" />
    <glyph glyph-name="y" unicode="y" horiz-adv-x="506" 
d="M126 -175l68 189l-189 514h130l122 -376l122 376h122l-253 -703h-122z" />
    <glyph glyph-name="z" unicode="z" horiz-adv-x="504" 
d="M31 91l288 346h-268v91h416v-91l-289 -346h296v-91h-443v91z" />
    <glyph glyph-name="braceleft" unicode="{" horiz-adv-x="324" 
d="M85 -12v137q0 53 -15 78t-61 25v95q46 0 61 25t15 78v136q0 94 39 128.5t139 34.5h41v-97h-28q-44 0 -60 -15.5t-16 -55.5v-144q0 -65 -21.5 -95t-64.5 -41v-3q43 -11 64.5 -41t21.5 -95v-146q0 -40 16 -55.5t60 -15.5h28v-96h-41q-100 0 -139 34.5t-39 128.5z" />
    <glyph glyph-name="bar" unicode="|" horiz-adv-x="258" 
d="M180 725v-815h-102v815h102z" />
    <glyph glyph-name="braceright" unicode="}" horiz-adv-x="324" 
d="M20 -79h28q44 0 60 15.5t16 55.5v146q0 65 21 95t64 41v3q-43 11 -64 41t-21 95v144q0 40 -16 55.5t-60 15.5h-28v97h40q100 0 139 -34.5t39 -128.5v-136q0 -53 15 -78t62 -25v-95q-47 0 -62 -25t-15 -78v-137q0 -94 -39 -128.5t-139 -34.5h-40v96z" />
    <glyph glyph-name="asciitilde" unicode="~" horiz-adv-x="688" 
d="M505 358h93q-3 -80 -41.5 -126t-109.5 -46q-39 0 -105 34.5t-97 34.5q-59 0 -62 -69h-93q3 81 41.5 126.5t110.5 45.5q48 0 112.5 -34.5t89.5 -34.5q58 0 61 69z" />
    <glyph glyph-name="uni00A0" unicode="&#xa0;" horiz-adv-x="230" 
 />
    <glyph glyph-name="exclamdown" unicode="&#xa1;" horiz-adv-x="250" 
d="M57 392v136h136v-136h-136zM185 -175h-120v188l21 312h78l21 -312v-188z" />
    <glyph glyph-name="cent" unicode="&#xa2;" horiz-adv-x="569" 
d="M533 158q-23 -75 -82 -119.5t-136 -50.5v-81h-49v81q-106 9 -168 85.5t-62 189.5q0 112 61.5 188.5t168.5 87.5v84h49v-84q78 -5 136 -50t78 -119l-110 -24q-8 38 -34.5 63.5t-69.5 30.5v-353q89 10 108 95zM159 264q0 -78 29 -121.5t78 -53.5v349q-49 -10 -78 -53.5
t-29 -120.5z" />
    <glyph glyph-name="sterling" unicode="&#xa3;" horiz-adv-x="590" 
d="M184 551q0 -50 53 -154h176v-71h-146q12 -36 12 -61q0 -49 -27 -92t-67 -72l1 -2q32 14 65 14q25 0 73.5 -15.5t81.5 -15.5q48 0 126 29l35 -87q-68 -39 -154 -39q-35 0 -102.5 21.5t-104.5 21.5q-62 0 -139 -43l-42 88q135 64 135 183q0 32 -15 70h-125v71h90
q-50 96 -50 159q0 90 74 136t178 46q118 0 185.5 -63.5t69.5 -169.5l-119 -12q0 154 -139 154q-51 0 -88 -25.5t-37 -70.5z" />
    <glyph glyph-name="currency" unicode="&#xa4;" horiz-adv-x="646" 
d="M128 485l-69 70l49 49l68 -68q63 49 144 49q83 0 147 -51l71 70l49 -49l-72 -72q44 -64 44 -137q0 -76 -44 -137l72 -71l-49 -49l-71 70q-65 -49 -147 -49q-79 0 -143 48l-69 -69l-49 49l69 70q-44 61 -44 138q0 78 44 139zM319 202q62 0 102 41.5t40 102.5
q0 63 -40 105.5t-102 42.5q-59 0 -97 -42.5t-38 -105.5q0 -61 38 -102.5t97 -41.5z" />
    <glyph glyph-name="yen" unicode="&#xa5;" horiz-adv-x="655" 
d="M384 97v-97h-121v97h-174v79h174v78h-174v78h139l-225 393h140l184 -345l186 345h139l-231 -393h144v-78h-181v-78h181v-79h-181z" />
    <glyph glyph-name="brokenbar" unicode="&#xa6;" horiz-adv-x="246" 
d="M174 725v-305h-102v305h102zM174 215v-305h-102v305h102z" />
    <glyph glyph-name="section" unicode="&#xa7;" horiz-adv-x="609" 
d="M399 -29q0 31 -20.5 53.5t-72.5 49.5l-127 66q-140 72 -140 176q0 46 31 83t81 59q-63 54 -63 128q0 71 62.5 111.5t146.5 40.5q89 0 148.5 -44.5t73.5 -120.5l-112 -12q-7 42 -37 64.5t-76 22.5q-41 0 -65.5 -15t-24.5 -40q0 -26 18 -45t60 -40l137 -71
q77 -42 114.5 -80t37.5 -93q0 -50 -31.5 -89.5t-86.5 -63.5q63 -55 63 -127q0 -81 -62.5 -129t-154.5 -48q-95 0 -157 52.5t-71 141.5l112 11q17 -114 120 -114q43 0 69.5 19.5t26.5 53.5zM234 408q-82 -26 -82 -81q0 -28 18.5 -48t58.5 -41l135 -70l11 -6q78 33 78 83
q0 29 -23 51.5t-74 48.5z" />
    <glyph glyph-name="dieresis" unicode="&#xa8;" horiz-adv-x="385" 
d="M22 725h105v-111h-105v111zM363 725v-111h-105v111h105z" />
    <glyph glyph-name="copyright" unicode="&#xa9;" horiz-adv-x="835" 
d="M418 738q158 0 266 -106t108 -271q0 -164 -108 -269t-266 -105q-159 0 -267 105t-108 269q0 165 108.5 271t266.5 106zM418 59q128 0 211.5 84.5t83.5 217.5q0 135 -83.5 219.5t-211.5 84.5q-126 0 -210.5 -84.5t-84.5 -219.5q0 -133 84.5 -217.5t210.5 -84.5zM516 313
l92 -23q-17 -58 -68 -94.5t-124 -36.5q-92 0 -144 56.5t-52 150.5q0 93 54.5 149t144.5 56q72 0 121.5 -38.5t64.5 -99.5l-92 -25q-7 39 -32.5 61.5t-62.5 22.5q-44 0 -71 -32.5t-27 -93.5t27 -95t71 -34q80 0 98 76z" />
    <glyph glyph-name="ordfeminine" unicode="&#xaa;" horiz-adv-x="341" 
d="M132 431q-47 0 -76.5 25.5t-29.5 65.5q0 47 43 70.5t129 33.5q19 2 25.5 5.5t6.5 12.5q0 49 -59 49t-65 -48l-71 6q6 44 44 70t94 26q66 0 97.5 -29.5t30.5 -91.5v-69q-1 -61 5 -119h-71v41q-31 -48 -103 -48zM152 485q79 0 79 82v13l-55 -9q-73 -11 -73 -47
q0 -17 13.5 -28t35.5 -11z" />
    <glyph glyph-name="guillemotleft" unicode="&#xab;" horiz-adv-x="553" 
d="M21 273l159 229h114l-134 -229l134 -230h-114zM243 273l159 229h114l-134 -229l134 -230h-114z" />
    <glyph glyph-name="logicalnot" unicode="&#xac;" horiz-adv-x="688" 
d="M73 322v107h542v-334h-111v227h-431z" />
    <glyph glyph-name="uni00AD" unicode="&#xad;" horiz-adv-x="432" 
d="M53 216v107h326v-107h-326z" />
    <glyph glyph-name="registered" unicode="&#xae;" horiz-adv-x="835" 
d="M418 738q158 0 266 -106t108 -271q0 -164 -108 -269t-266 -105q-159 0 -267 105t-108 269q0 165 108.5 271t266.5 106zM418 59q128 0 211.5 84.5t83.5 217.5q0 135 -83.5 219.5t-211.5 84.5q-126 0 -210.5 -84.5t-84.5 -219.5q0 -133 84.5 -217.5t210.5 -84.5zM419 322
h-65v-147h-97v400h145q91 0 138 -28t47 -100q0 -78 -72 -108l96 -164h-109zM424 498h-70v-101h71q65 0 65 49q0 24 -17.5 38t-48.5 14z" />
    <glyph glyph-name="macron" unicode="&#xaf;" horiz-adv-x="352" 
d="M22 628v88h308v-88h-308z" />
    <glyph glyph-name="degree" unicode="&#xb0;" horiz-adv-x="347" 
d="M173 738q65 0 110.5 -46t45.5 -110t-46 -109.5t-110 -45.5t-109.5 45.5t-45.5 109.5t45.5 110t109.5 46zM173 504q33 0 54 22.5t21 55.5q0 34 -21 57t-54 23q-32 0 -52.5 -23t-20.5 -57q0 -33 20.5 -55.5t52.5 -22.5z" />
    <glyph glyph-name="plusminus" unicode="&#xb1;" horiz-adv-x="688" 
d="M288 529h113v-136h214v-108h-214v-139h-113v139h-215v108h215v136zM73 0v107h542v-107h-542z" />
    <glyph glyph-name="uni00B2" unicode="&#xb2;" horiz-adv-x="365" 
d="M329 740q0 -110 -197 -230h201v-72h-308v71q129 99 163 133q53 53 53 93q0 26 -16 40t-42 14q-29 0 -48.5 -20t-18.5 -64l-85 8q1 64 44 102t111 38q64 0 103.5 -30t39.5 -83z" />
    <glyph glyph-name="uni00B3" unicode="&#xb3;" horiz-adv-x="382" 
d="M261 555q0 58 -94 58h-23v70h20q89 0 89 56q0 23 -18 36t-44 13q-66 0 -75 -62l-83 11q9 57 53.5 86.5t109.5 29.5q59 0 102 -27.5t43 -80.5q0 -29 -16.5 -53.5t-39.5 -37.5q30 -12 47 -40t17 -58q0 -60 -46 -92.5t-114 -32.5q-64 0 -107.5 33t-53.5 93l84 9
q4 -33 25.5 -52t53.5 -19q31 0 50.5 16t19.5 44z" />
    <glyph glyph-name="acute" unicode="&#xb4;" horiz-adv-x="277" 
d="M113 609h-91l93 116h140z" />
    <glyph glyph-name="paragraph" unicode="&#xb6;" horiz-adv-x="520" 
d="M238 725h211v-814h-79v740h-115v-740h-80v463q-70 8 -120 50t-50 124q0 83 61.5 130t171.5 47z" />
    <glyph glyph-name="periodcentered" unicode="&#xb7;" horiz-adv-x="250" 
d="M57 201v136h136v-136h-136z" />
    <glyph glyph-name="cedilla" unicode="&#xb8;" horiz-adv-x="252" 
d="M39 -133q26 -14 58 -14q57 0 57 30q0 29 -41 29q-25 0 -38 -9l-30 17l51 83h53l-32 -51q18 3 35 3q34 -1 56 -19.5t22 -48.5q0 -38 -34 -60t-79 -22q-56 0 -95 19z" />
    <glyph glyph-name="uni00B9" unicode="&#xb9;" horiz-adv-x="251" 
d="M107 438v286h-91v62q49 2 73.5 14.5t37.5 45.5h66v-408h-86z" />
    <glyph glyph-name="ordmasculine" unicode="&#xba;" horiz-adv-x="351" 
d="M175 431q-64 0 -108 40t-44 117t44 117.5t108 40.5q63 0 107 -40.5t44 -117.5t-43.5 -117t-107.5 -40zM175 490q33 0 54 24.5t21 73.5q0 50 -20.5 74.5t-54.5 24.5q-33 0 -54 -24t-21 -75q0 -50 21 -74t54 -24z" />
    <glyph glyph-name="guillemotright" unicode="&#xbb;" horiz-adv-x="553" 
d="M151 43h-114l135 230l-135 229h114l159 -229zM373 43h-114l135 230l-135 229h114l159 -229z" />
    <glyph glyph-name="onequarter" unicode="&#xbc;" horiz-adv-x="878" 
d="M107 317v286h-91v62q49 2 73.5 14.5t37.5 45.5h66v-408h-86zM56 0l500 725h126l-500 -725h-126zM857 91h-62v-91h-87v91h-199v68l204 249h82v-242h62v-75zM604 166h104v130z" />
    <glyph glyph-name="onehalf" unicode="&#xbd;" horiz-adv-x="852" 
d="M107 317v286h-91v62q49 2 73.5 14.5t37.5 45.5h66v-408h-86zM56 0l500 725h126l-500 -725h-126zM816 302q0 -110 -197 -230h201v-72h-308v71q129 99 163 133q53 53 53 93q0 26 -16 40t-42 14q-29 0 -48.5 -20t-18.5 -64l-85 8q1 64 44 102t111 38q64 0 103.5 -30
t39.5 -83z" />
    <glyph glyph-name="threequarters" unicode="&#xbe;" horiz-adv-x="1009" 
d="M261 434q0 58 -94 58h-23v70h20q89 0 89 56q0 23 -18 36t-44 13q-66 0 -75 -62l-83 6q7 59 51.5 90t111.5 31q59 0 102 -27.5t43 -80.5q0 -29 -16.5 -53.5t-39.5 -37.5q30 -12 47 -40t17 -58q0 -60 -46 -92.5t-114 -32.5q-64 0 -108 33.5t-53 93.5l84 8q4 -33 25.5 -52
t53.5 -19q31 0 50.5 16t19.5 44zM187 0l500 725h126l-500 -725h-126zM988 91h-62v-91h-87v91h-199v68l204 249h82v-242h62v-75zM735 166h104v130z" />
    <glyph glyph-name="questiondown" unicode="&#xbf;" horiz-adv-x="524" 
d="M223 392v136h136v-136h-136zM16 -11q0 63 34 105t91 79q36 23 50.5 34.5t27.5 34.5t13 55v31h119v-34q0 -66 -27.5 -103.5t-85.5 -74.5q-36 -22 -53 -35t-32 -36t-15 -50q0 -41 33.5 -65t84.5 -24q64 0 99.5 37t37.5 99l118 -14q-6 -97 -78.5 -157t-180.5 -60
q-97 0 -166.5 45.5t-69.5 132.5z" />
    <glyph glyph-name="Agrave" unicode="&#xc0;" horiz-adv-x="686" 
d="M136 875h153l106 -113h-94zM275 725h134l272 -725h-139l-57 161h-294l-56 -161h-130zM228 267h219l-110 311z" />
    <glyph glyph-name="Aacute" unicode="&#xc1;" horiz-adv-x="686" 
d="M395 762h-104l105 113h154zM275 725h134l272 -725h-139l-57 161h-294l-56 -161h-130zM228 267h219l-110 311z" />
    <glyph glyph-name="Acircumflex" unicode="&#xc2;" horiz-adv-x="686" 
d="M532 762h-122l-67 51l-68 -51h-121l138 113h105zM275 725h134l272 -725h-139l-57 161h-294l-56 -161h-130zM228 267h219l-110 311z" />
    <glyph glyph-name="Atilde" unicode="&#xc3;" horiz-adv-x="686" 
d="M454 875h83q-18 -113 -128 -113q-33 0 -72 19.5t-56 19.5q-41 0 -47 -39h-85q19 113 128 113q33 0 70.5 -19.5t56.5 -19.5q41 0 50 39zM275 725h134l272 -725h-139l-57 161h-294l-56 -161h-130zM228 267h219l-110 311z" />
    <glyph glyph-name="Adieresis" unicode="&#xc4;" horiz-adv-x="686" 
d="M278 873v-108h-105v108h105zM514 873v-108h-105v108h105zM275 725h134l272 -725h-139l-57 161h-294l-56 -161h-130zM228 267h219l-110 311z" />
    <glyph glyph-name="Aring" unicode="&#xc5;" horiz-adv-x="686" 
d="M434 839q0 -37 -26 -61t-65 -24q-38 0 -64 24.5t-26 60.5q0 37 26.5 61t63.5 24q38 0 64.5 -24t26.5 -61zM300 839q0 -18 13 -30t30 -12q18 0 30.5 12t12.5 30t-12.5 30.5t-30.5 12.5q-17 0 -30 -12.5t-13 -30.5zM275 725h134l272 -725h-139l-57 161h-294l-56 -161h-130z
M228 267h219l-110 311z" />
    <glyph glyph-name="AE" unicode="&#xc6;" horiz-adv-x="1024" 
d="M478 0v151h-262l-101 -151h-136l499 725h514v-106h-387v-194h365v-105h-365v-213h387v-107h-514zM286 256h192v286z" />
    <glyph glyph-name="Ccedilla" unicode="&#xc7;" horiz-adv-x="736" 
d="M691 215q-28 -109 -107.5 -168t-197.5 -60l-22 -35q18 3 35 3q34 -1 56 -19.5t22 -48.5q0 -38 -34 -60t-79 -22q-56 0 -95 19l17 43q26 -14 58 -14q57 0 57 30q0 29 -41 29q-25 0 -38 -9l-30 17l43 70q-135 16 -210.5 116.5t-75.5 258.5q0 171 92 272t249 101
q115 0 194 -59.5t106 -168.5l-117 -26q-16 72 -65.5 111t-121.5 39q-90 0 -148 -71t-58 -198q0 -128 57.5 -201t147.5 -73q75 0 124.5 38.5t65.5 111.5z" />
    <glyph glyph-name="Egrave" unicode="&#xc8;" horiz-adv-x="625" 
d="M127 875h153l106 -113h-94zM78 725h513v-106h-386v-194h365v-105h-365v-213h386v-107h-513v725z" />
    <glyph glyph-name="Eacute" unicode="&#xc9;" horiz-adv-x="625" 
d="M386 762h-104l105 113h154zM78 725h513v-106h-386v-194h365v-105h-365v-213h386v-107h-513v725z" />
    <glyph glyph-name="Ecircumflex" unicode="&#xca;" horiz-adv-x="625" 
d="M523 762h-122l-67 51l-68 -51h-121l138 113h105zM78 725h513v-106h-386v-194h365v-105h-365v-213h386v-107h-513v725z" />
    <glyph glyph-name="Edieresis" unicode="&#xcb;" horiz-adv-x="625" 
d="M269 873v-108h-105v108h105zM505 873v-108h-105v108h105zM78 725h513v-106h-386v-194h365v-105h-365v-213h386v-107h-513v725z" />
    <glyph glyph-name="Igrave" unicode="&#xcc;" horiz-adv-x="283" 
d="M-66 875h153l106 -113h-94zM205 0h-127v725h127v-725z" />
    <glyph glyph-name="Iacute" unicode="&#xcd;" horiz-adv-x="283" 
d="M193 762h-104l105 113h154zM205 0h-127v725h127v-725z" />
    <glyph glyph-name="Icircumflex" unicode="&#xce;" horiz-adv-x="283" 
d="M330 762h-122l-67 51l-68 -51h-121l138 113h105zM205 0h-127v725h127v-725z" />
    <glyph glyph-name="Idieresis" unicode="&#xcf;" horiz-adv-x="283" 
d="M76 873v-108h-105v108h105zM312 873v-108h-105v108h105zM205 0h-127v725h127v-725z" />
    <glyph glyph-name="Eth" unicode="&#xd0;" horiz-adv-x="749" 
d="M296 725q91 0 161 -17.5t127 -57t87 -112t30 -175.5t-30 -175.5t-87 -112.5t-127 -57.5t-161 -17.5h-198v314h-84v106h84v305h198zM290 623h-65v-203h133v-106h-133v-212h65q60 0 103.5 9t86.5 34.5t66 80.5t23 137t-23 136.5t-66 80t-86.5 34.5t-103.5 9z" />
    <glyph glyph-name="Ntilde" unicode="&#xd1;" horiz-adv-x="756" 
d="M489 875h83q-18 -113 -128 -113q-33 0 -72 19.5t-56 19.5q-41 0 -47 -39h-85q19 113 128 113q33 0 70.5 -19.5t56.5 -19.5q41 0 50 39zM508 0l-307 579v-579h-123v725h170l307 -579v579h123v-725h-170z" />
    <glyph glyph-name="Ograve" unicode="&#xd2;" horiz-adv-x="790" 
d="M188 875h153l106 -113h-94zM395 -13q-158 0 -252 103.5t-94 272.5t94 272t252 103t252 -103t94 -272t-94 -272.5t-252 -103.5zM395 91q94 0 154.5 72t60.5 200t-60.5 199.5t-154.5 71.5t-154.5 -71.5t-60.5 -199.5t60.5 -200t154.5 -72z" />
    <glyph glyph-name="Oacute" unicode="&#xd3;" horiz-adv-x="790" 
d="M447 762h-104l105 113h154zM395 -13q-158 0 -252 103.5t-94 272.5t94 272t252 103t252 -103t94 -272t-94 -272.5t-252 -103.5zM395 91q94 0 154.5 72t60.5 200t-60.5 199.5t-154.5 71.5t-154.5 -71.5t-60.5 -199.5t60.5 -200t154.5 -72z" />
    <glyph glyph-name="Ocircumflex" unicode="&#xd4;" horiz-adv-x="790" 
d="M584 762h-122l-67 51l-68 -51h-121l138 113h105zM395 -13q-158 0 -252 103.5t-94 272.5t94 272t252 103t252 -103t94 -272t-94 -272.5t-252 -103.5zM395 91q94 0 154.5 72t60.5 200t-60.5 199.5t-154.5 71.5t-154.5 -71.5t-60.5 -199.5t60.5 -200t154.5 -72z" />
    <glyph glyph-name="Otilde" unicode="&#xd5;" horiz-adv-x="790" 
d="M506 875h83q-18 -113 -128 -113q-33 0 -72 19.5t-56 19.5q-41 0 -47 -39h-85q19 113 128 113q33 0 70.5 -19.5t56.5 -19.5q41 0 50 39zM395 -13q-158 0 -252 103.5t-94 272.5t94 272t252 103t252 -103t94 -272t-94 -272.5t-252 -103.5zM395 91q94 0 154.5 72t60.5 200
t-60.5 199.5t-154.5 71.5t-154.5 -71.5t-60.5 -199.5t60.5 -200t154.5 -72z" />
    <glyph glyph-name="Odieresis" unicode="&#xd6;" horiz-adv-x="790" 
d="M330 873v-108h-105v108h105zM566 873v-108h-105v108h105zM395 -13q-158 0 -252 103.5t-94 272.5t94 272t252 103t252 -103t94 -272t-94 -272.5t-252 -103.5zM395 91q94 0 154.5 72t60.5 200t-60.5 199.5t-154.5 71.5t-154.5 -71.5t-60.5 -199.5t60.5 -200t154.5 -72z" />
    <glyph glyph-name="multiply" unicode="&#xd7;" horiz-adv-x="688" 
d="M506 30l-166 166l-162 -163l-70 69l162 164l-161 161l74 74l162 -161l163 162l69 -69l-162 -163l165 -166z" />
    <glyph glyph-name="Oslash" unicode="&#xd8;" horiz-adv-x="790" 
d="M395 -13q-130 0 -217 70l-64 -75l-49 43l67 78q-83 101 -83 260q0 169 94 272t252 103q129 0 217 -71l57 66l49 -42l-60 -70q83 -102 83 -258q0 -169 -94 -272.5t-252 -103.5zM215 201l321 376q-59 57 -141 57q-94 0 -154.5 -71.5t-60.5 -199.5q0 -94 35 -162zM575 523
l-320 -376q56 -56 140 -56q94 0 154.5 72t60.5 200q0 93 -35 160z" />
    <glyph glyph-name="Ugrave" unicode="&#xd9;" horiz-adv-x="727" 
d="M156 875h153l106 -113h-94zM194 725v-428q0 -106 36.5 -156t133.5 -50q95 0 132 52t37 158v424h127v-419q0 -171 -68.5 -245t-227.5 -74t-228 71t-69 244v423h127z" />
    <glyph glyph-name="Uacute" unicode="&#xda;" horiz-adv-x="727" 
d="M415 762h-104l105 113h154zM194 725v-428q0 -106 36.5 -156t133.5 -50q95 0 132 52t37 158v424h127v-419q0 -171 -68.5 -245t-227.5 -74t-228 71t-69 244v423h127z" />
    <glyph glyph-name="Ucircumflex" unicode="&#xdb;" horiz-adv-x="727" 
d="M552 762h-122l-67 51l-68 -51h-121l138 113h105zM194 725v-428q0 -106 36.5 -156t133.5 -50q95 0 132 52t37 158v424h127v-419q0 -171 -68.5 -245t-227.5 -74t-228 71t-69 244v423h127z" />
    <glyph glyph-name="Udieresis" unicode="&#xdc;" horiz-adv-x="727" 
d="M298 873v-108h-105v108h105zM534 873v-108h-105v108h105zM194 725v-428q0 -106 36.5 -156t133.5 -50q95 0 132 52t37 158v424h127v-419q0 -171 -68.5 -245t-227.5 -74t-228 71t-69 244v423h127z" />
    <glyph glyph-name="Yacute" unicode="&#xdd;" horiz-adv-x="653" 
d="M378 762h-104l105 113h154zM145 725l180 -324l185 324h143l-267 -445v-280h-127v282l-259 443h145z" />
    <glyph glyph-name="Thorn" unicode="&#xde;" horiz-adv-x="629" 
d="M306 605q53 0 93.5 -4.5t83 -19t69.5 -39.5t44.5 -68.5t17.5 -102.5q0 -66 -23 -112.5t-66.5 -70.5t-95.5 -34.5t-121 -10.5h-101v-143h-129v725h129v-120h99zM207 499v-250h106q82 0 126 24.5t44 96.5q0 34 -10.5 59t-25.5 38t-40.5 20.5t-47.5 9.5t-53 2h-99z" />
    <glyph glyph-name="germandbls" unicode="&#xdf;" horiz-adv-x="655" 
d="M72 0v479q0 131 58 192q66 67 206 67q105 0 170.5 -46t65.5 -134q0 -106 -90 -148q59 -18 96 -67t37 -128q0 -112 -73.5 -170t-190.5 -58q-63 0 -114 12l19 101q45 -15 94 -15q62 0 102.5 33.5t40.5 95.5q0 136 -188 136h-12v100h9q151 0 151 101q0 45 -32 70.5t-88 25.5
q-79 0 -114 -43q-28 -38 -28 -124v-480h-119z" />
    <glyph glyph-name="agrave" unicode="&#xe0;" horiz-adv-x="579" 
d="M97 725h141l94 -116h-93zM239 -13q-88 0 -143.5 45t-55.5 117q0 76 61 115t177 54l63 9q35 6 48 18.5t13 36.5q0 36 -28.5 55t-79.5 19q-54 0 -85 -24.5t-33 -72.5l-116 12q11 78 74 125.5t158 47.5q233 0 229 -225q0 -11 -1 -59.5t-1 -75.5q0 -112 16 -184h-110
q-8 49 -10 77q-49 -90 -176 -90zM404 234v25q-14 -4 -95 -18q-75 -11 -109 -32t-34 -57q0 -34 27 -55t72 -21q139 0 139 158z" />
    <glyph glyph-name="aacute" unicode="&#xe1;" horiz-adv-x="579" 
d="M330 609h-91l93 116h140zM239 -13q-88 0 -143.5 45t-55.5 117q0 76 61 115t177 54l63 9q35 6 48 18.5t13 36.5q0 36 -28.5 55t-79.5 19q-54 0 -85 -24.5t-33 -72.5l-116 12q11 78 74 125.5t158 47.5q233 0 229 -225q0 -11 -1 -59.5t-1 -75.5q0 -112 16 -184h-110
q-8 49 -10 77q-49 -90 -176 -90zM404 234v25q-14 -4 -95 -18q-75 -11 -109 -32t-34 -57q0 -34 27 -55t72 -21q139 0 139 158z" />
    <glyph glyph-name="acircumflex" unicode="&#xe2;" horiz-adv-x="579" 
d="M474 609h-110l-79 48l-80 -48h-109l143 116h95zM239 -13q-88 0 -143.5 45t-55.5 117q0 76 61 115t177 54l63 9q35 6 48 18.5t13 36.5q0 36 -28.5 55t-79.5 19q-54 0 -85 -24.5t-33 -72.5l-116 12q11 78 74 125.5t158 47.5q233 0 229 -225q0 -11 -1 -59.5t-1 -75.5
q0 -112 16 -184h-110q-8 49 -10 77q-49 -90 -176 -90zM404 234v25q-14 -4 -95 -18q-75 -11 -109 -32t-34 -57q0 -34 27 -55t72 -21q139 0 139 158z" />
    <glyph glyph-name="atilde" unicode="&#xe3;" horiz-adv-x="579" 
d="M396 735h85q-11 -70 -48 -98.5t-81 -28.5q-34 0 -73 22.5t-57 22.5q-40 0 -48 -44h-85q11 69 48 98t81 29q35 0 71.5 -22.5t56.5 -22.5q41 0 50 44zM239 -13q-88 0 -143.5 45t-55.5 117q0 76 61 115t177 54l63 9q35 6 48 18.5t13 36.5q0 36 -28.5 55t-79.5 19
q-54 0 -85 -24.5t-33 -72.5l-116 12q11 78 74 125.5t158 47.5q233 0 229 -225q0 -11 -1 -59.5t-1 -75.5q0 -112 16 -184h-110q-8 49 -10 77q-49 -90 -176 -90zM404 234v25q-14 -4 -95 -18q-75 -11 -109 -32t-34 -57q0 -34 27 -55t72 -21q139 0 139 158z" />
    <glyph glyph-name="adieresis" unicode="&#xe4;" horiz-adv-x="579" 
d="M115 725h105v-111h-105v111zM456 725v-111h-105v111h105zM239 -13q-88 0 -143.5 45t-55.5 117q0 76 61 115t177 54l63 9q35 6 48 18.5t13 36.5q0 36 -28.5 55t-79.5 19q-54 0 -85 -24.5t-33 -72.5l-116 12q11 78 74 125.5t158 47.5q233 0 229 -225q0 -11 -1 -59.5
t-1 -75.5q0 -112 16 -184h-110q-8 49 -10 77q-49 -90 -176 -90zM404 234v25q-14 -4 -95 -18q-75 -11 -109 -32t-34 -57q0 -34 27 -55t72 -21q139 0 139 158z" />
    <glyph glyph-name="aring" unicode="&#xe5;" horiz-adv-x="579" 
d="M378 692q0 -38 -27 -62.5t-66 -24.5t-66 24.5t-27 62.5q0 37 27 62t66 25t66 -25t27 -62zM244 692q0 -18 12 -29.5t29 -11.5t29.5 11.5t12.5 29.5t-12.5 30t-29.5 12t-29 -12t-12 -30zM239 -13q-88 0 -143.5 45t-55.5 117q0 76 61 115t177 54l63 9q35 6 48 18.5t13 36.5
q0 36 -28.5 55t-79.5 19q-54 0 -85 -24.5t-33 -72.5l-116 12q11 78 74 125.5t158 47.5q233 0 229 -225q0 -11 -1 -59.5t-1 -75.5q0 -112 16 -184h-110q-8 49 -10 77q-49 -90 -176 -90zM404 234v25q-14 -4 -95 -18q-75 -11 -109 -32t-34 -57q0 -34 27 -55t72 -21
q139 0 139 158z" />
    <glyph glyph-name="ae" unicode="&#xe6;" horiz-adv-x="944" 
d="M661 -13q-144 0 -210 108q-32 -56 -89.5 -82t-122.5 -26q-88 0 -143.5 45t-55.5 117q0 76 61 115t177 54l63 9q35 6 48 18.5t13 36.5q0 36 -28.5 55t-79.5 19q-54 0 -85 -24.5t-33 -72.5l-116 12q11 78 74 125.5t158 47.5q135 0 180 -80q66 76 181 76q124 0 193.5 -85.5
t61.5 -222.5h-395q3 -69 45 -107.5t98 -38.5q100 0 131 77l109 -26q-26 -65 -85.5 -107.5t-149.5 -42.5zM513 319h274q-2 59 -40 93.5t-94 34.5q-52 0 -93 -31.5t-47 -96.5zM404 234v25q-14 -4 -95 -18q-75 -11 -109 -32t-34 -57q0 -34 27 -55t72 -21q139 0 139 158z" />
    <glyph glyph-name="ccedilla" unicode="&#xe7;" horiz-adv-x="569" 
d="M533 158q-23 -78 -87 -123.5t-146 -47.5l-22 -35q18 3 35 3q34 -1 56 -19.5t22 -48.5q0 -38 -34 -60t-79 -22q-56 0 -95 19l17 43q26 -14 58 -14q57 0 57 30q0 29 -41 29q-25 0 -38 -9l-30 17l43 70q-99 14 -156 89.5t-57 183.5q0 121 70.5 199t190.5 78q84 0 147 -46
t85 -124l-110 -24q-9 43 -41 69t-84 26q-60 0 -97.5 -44t-37.5 -133t37.5 -133.5t97.5 -44.5q107 0 129 96z" />
    <glyph glyph-name="egrave" unicode="&#xe8;" horiz-adv-x="589" 
d="M341 609h-93l-142 116h141zM297 540q124 0 193.5 -85.5t61.5 -222.5h-395q2 -69 44.5 -107.5t101.5 -38.5q100 0 131 76l109 -22q-25 -69 -86 -111t-153 -42q-127 0 -197.5 80.5t-70.5 200.5t72.5 196t188.5 76zM157 319h274q-2 59 -40 93.5t-94 34.5q-52 0 -93 -31.5
t-47 -96.5z" />
    <glyph glyph-name="eacute" unicode="&#xe9;" horiz-adv-x="589" 
d="M481 725l-142 -116h-91l93 116h140zM297 540q124 0 193.5 -85.5t61.5 -222.5h-395q2 -69 44.5 -107.5t101.5 -38.5q100 0 131 76l109 -22q-25 -69 -86 -111t-153 -42q-127 0 -197.5 80.5t-70.5 200.5t72.5 196t188.5 76zM157 319h274q-2 59 -40 93.5t-94 34.5
q-52 0 -93 -31.5t-47 -96.5z" />
    <glyph glyph-name="ecircumflex" unicode="&#xea;" horiz-adv-x="589" 
d="M294 657l-80 -48h-109l143 116h95l140 -116h-110zM297 540q124 0 193.5 -85.5t61.5 -222.5h-395q2 -69 44.5 -107.5t101.5 -38.5q100 0 131 76l109 -22q-25 -69 -86 -111t-153 -42q-127 0 -197.5 80.5t-70.5 200.5t72.5 196t188.5 76zM157 319h274q-2 59 -40 93.5
t-94 34.5q-52 0 -93 -31.5t-47 -96.5z" />
    <glyph glyph-name="edieresis" unicode="&#xeb;" horiz-adv-x="589" 
d="M229 725v-111h-105v111h105zM465 725v-111h-105v111h105zM297 540q124 0 193.5 -85.5t61.5 -222.5h-395q2 -69 44.5 -107.5t101.5 -38.5q100 0 131 76l109 -22q-25 -69 -86 -111t-153 -42q-127 0 -197.5 80.5t-70.5 200.5t72.5 196t188.5 76zM157 319h274q-2 59 -40 93.5
t-94 34.5q-52 0 -93 -31.5t-47 -96.5z" />
    <glyph glyph-name="igrave" unicode="&#xec;" horiz-adv-x="263" 
d="M-57 725h141l94 -116h-93zM191 528v-528h-119v528h119z" />
    <glyph glyph-name="iacute" unicode="&#xed;" horiz-adv-x="263" 
d="M176 609h-91l93 116h140zM191 528v-528h-119v528h119z" />
    <glyph glyph-name="icircumflex" unicode="&#xee;" horiz-adv-x="263" 
d="M320 609h-110l-79 48l-80 -48h-109l143 116h95zM191 528v-528h-119v528h119z" />
    <glyph glyph-name="idieresis" unicode="&#xef;" horiz-adv-x="263" 
d="M-39 725h105v-111h-105v111zM302 725v-111h-105v111h105zM191 528v-528h-119v528h119z" />
    <glyph glyph-name="eth" unicode="&#xf0;" horiz-adv-x="588" 
d="M390 740l54 -27l-71 -44q173 -135 173 -358q0 -159 -71 -241.5t-188 -82.5q-114 0 -183.5 75t-69.5 204q0 131 65.5 207.5t166.5 76.5q50 0 92 -23t66 -63l1 1q-38 88 -135 154l-72 -44l-53 25l77 48q-11 6 -81 38l85 60q45 -21 82 -45zM291 453q-62 0 -97.5 -49.5
t-35.5 -134.5q0 -86 35.5 -135.5t97.5 -49.5q61 0 100 48t39 137t-39 136.5t-100 47.5z" />
    <glyph glyph-name="ntilde" unicode="&#xf1;" horiz-adv-x="599" 
d="M415 735h85q-11 -70 -48 -98.5t-81 -28.5q-34 0 -73 22.5t-57 22.5q-40 0 -48 -44h-85q11 69 48 98t81 29q35 0 72 -22.5t56 -22.5q41 0 50 44zM191 453q48 87 163 87q183 0 183 -212v-328h-119v299q0 25 -2 43.5t-8 38.5t-16.5 32.5t-30 21t-45.5 8.5q-125 0 -125 -167
v-276h-119v528h119v-75z" />
    <glyph glyph-name="ograve" unicode="&#xf2;" horiz-adv-x="596" 
d="M110 725h141l94 -116h-93zM560 263q0 -135 -77 -205.5t-185 -70.5t-185 70.5t-77 205.5t77 206t185 71t185 -71t77 -206zM437 263q0 87 -39.5 133.5t-99.5 46.5t-99.5 -46.5t-39.5 -133.5t39.5 -133t99.5 -46t99.5 46t39.5 133z" />
    <glyph glyph-name="oacute" unicode="&#xf3;" horiz-adv-x="596" 
d="M343 609h-91l93 116h140zM560 263q0 -135 -77 -205.5t-185 -70.5t-185 70.5t-77 205.5t77 206t185 71t185 -71t77 -206zM437 263q0 87 -39.5 133.5t-99.5 46.5t-99.5 -46.5t-39.5 -133.5t39.5 -133t99.5 -46t99.5 46t39.5 133z" />
    <glyph glyph-name="ocircumflex" unicode="&#xf4;" horiz-adv-x="596" 
d="M487 609h-110l-79 48l-80 -48h-109l143 116h95zM560 263q0 -135 -77 -205.5t-185 -70.5t-185 70.5t-77 205.5t77 206t185 71t185 -71t77 -206zM437 263q0 87 -39.5 133.5t-99.5 46.5t-99.5 -46.5t-39.5 -133.5t39.5 -133t99.5 -46t99.5 46t39.5 133z" />
    <glyph glyph-name="otilde" unicode="&#xf5;" horiz-adv-x="596" 
d="M409 735h85q-11 -70 -48 -98.5t-81 -28.5q-34 0 -73 22.5t-57 22.5q-40 0 -48 -44h-85q11 69 48 98t81 29q35 0 72 -22.5t56 -22.5q41 0 50 44zM560 263q0 -135 -77 -205.5t-185 -70.5t-185 70.5t-77 205.5t77 206t185 71t185 -71t77 -206zM437 263q0 87 -39.5 133.5
t-99.5 46.5t-99.5 -46.5t-39.5 -133.5t39.5 -133t99.5 -46t99.5 46t39.5 133z" />
    <glyph glyph-name="odieresis" unicode="&#xf6;" horiz-adv-x="596" 
d="M128 725h105v-111h-105v111zM469 725v-111h-105v111h105zM560 263q0 -135 -77 -205.5t-185 -70.5t-185 70.5t-77 205.5t77 206t185 71t185 -71t77 -206zM437 263q0 87 -39.5 133.5t-99.5 46.5t-99.5 -46.5t-39.5 -133.5t39.5 -133t99.5 -46t99.5 46t39.5 133z" />
    <glyph glyph-name="divide" unicode="&#xf7;" horiz-adv-x="688" 
d="M277 501h135v-130h-135v130zM80 210v107h529v-107h-529zM277 156h135v-130h-135v130z" />
    <glyph glyph-name="oslash" unicode="&#xf8;" horiz-adv-x="596" 
d="M498 452q62 -72 62 -189q0 -135 -77 -205.5t-185 -70.5q-92 0 -160 50l-55 -64l-45 41l56 65q-58 71 -58 184q0 135 77 206t185 71q90 0 156 -47l50 58l45 -40zM159 263q0 -52 16 -92l208 241q-35 31 -85 31q-60 0 -99.5 -46.5t-39.5 -133.5zM298 84q60 0 99.5 46
t39.5 133q0 55 -18 98l-210 -242q35 -35 89 -35z" />
    <glyph glyph-name="ugrave" unicode="&#xf9;" horiz-adv-x="595" 
d="M106 725h141l94 -116h-93zM404 74q-48 -87 -159 -87q-180 0 -180 212v329h119v-300q0 -32 3 -54t12.5 -44.5t30.5 -34t53 -11.5q121 0 121 167v277h119v-528h-119v74z" />
    <glyph glyph-name="uacute" unicode="&#xfa;" horiz-adv-x="595" 
d="M339 609h-91l93 116h140zM404 74q-48 -87 -159 -87q-180 0 -180 212v329h119v-300q0 -32 3 -54t12.5 -44.5t30.5 -34t53 -11.5q121 0 121 167v277h119v-528h-119v74z" />
    <glyph glyph-name="ucircumflex" unicode="&#xfb;" horiz-adv-x="595" 
d="M483 609h-110l-79 48l-80 -48h-109l143 116h95zM404 74q-48 -87 -159 -87q-180 0 -180 212v329h119v-300q0 -32 3 -54t12.5 -44.5t30.5 -34t53 -11.5q121 0 121 167v277h119v-528h-119v74z" />
    <glyph glyph-name="udieresis" unicode="&#xfc;" horiz-adv-x="595" 
d="M124 725h105v-111h-105v111zM465 725v-111h-105v111h105zM404 74q-48 -87 -159 -87q-180 0 -180 212v329h119v-300q0 -32 3 -54t12.5 -44.5t30.5 -34t53 -11.5q121 0 121 167v277h119v-528h-119v74z" />
    <glyph glyph-name="yacute" unicode="&#xfd;" horiz-adv-x="506" 
d="M298 609h-91l93 116h140zM126 -175l68 189l-189 514h130l122 -376l122 376h122l-253 -703h-122z" />
    <glyph glyph-name="thorn" unicode="&#xfe;" horiz-adv-x="617" 
d="M191 466q52 84 160 84q101 0 166 -76.5t65 -204.5t-65 -205t-166 -77q-108 0 -160 84v-246h-119v900h119v-259zM326 84q61 0 97 49.5t36 135.5q0 85 -35.5 134.5t-97.5 49.5t-101 -47.5t-39 -136.5q0 -90 39 -137.5t101 -47.5z" />
    <glyph glyph-name="ydieresis" unicode="&#xff;" horiz-adv-x="506" 
d="M83 725h105v-111h-105v111zM424 725v-111h-105v111h105zM126 -175l68 189l-189 514h130l122 -376l122 376h122l-253 -703h-122z" />
    <glyph glyph-name="Amacron" unicode="&#x100;" horiz-adv-x="686" 
d="M189 775v87h308v-87h-308zM275 725h134l272 -725h-139l-57 161h-294l-56 -161h-130zM228 267h219l-110 311z" />
    <glyph glyph-name="amacron" unicode="&#x101;" horiz-adv-x="579" 
d="M131 628v88h308v-88h-308zM239 -13q-88 0 -143.5 45t-55.5 117q0 76 61 115t177 54l63 9q35 6 48 18.5t13 36.5q0 36 -28.5 55t-79.5 19q-54 0 -85 -24.5t-33 -72.5l-116 12q11 78 74 125.5t158 47.5q233 0 229 -225q0 -11 -1 -59.5t-1 -75.5q0 -112 16 -184h-110
q-8 49 -10 77q-49 -90 -176 -90zM404 234v25q-14 -4 -95 -18q-75 -11 -109 -32t-34 -57q0 -34 27 -55t72 -21q139 0 139 158z" />
    <glyph glyph-name="Abreve" unicode="&#x102;" horiz-adv-x="686" 
d="M508 875q-11 -117 -165 -117q-152 0 -164 117h89q7 -51 76 -51t75 51h89zM275 725h134l272 -725h-139l-57 161h-294l-56 -161h-130zM228 267h219l-110 311z" />
    <glyph glyph-name="abreve" unicode="&#x103;" horiz-adv-x="579" 
d="M284 604q-154 0 -164 121h87q6 -55 78 -55q73 0 79 55h86q-12 -121 -166 -121zM239 -13q-88 0 -143.5 45t-55.5 117q0 76 61 115t177 54l63 9q35 6 48 18.5t13 36.5q0 36 -28.5 55t-79.5 19q-54 0 -85 -24.5t-33 -72.5l-116 12q11 78 74 125.5t158 47.5q233 0 229 -225
q0 -11 -1 -59.5t-1 -75.5q0 -112 16 -184h-110q-8 49 -10 77q-49 -90 -176 -90zM404 234v25q-14 -4 -95 -18q-75 -11 -109 -32t-34 -57q0 -34 27 -55t72 -21q139 0 139 158z" />
    <glyph glyph-name="Aogonek" unicode="&#x104;" horiz-adv-x="686" 
d="M275 725h134l272 -725q-91 -45 -91 -78q0 -35 45 -35q18 0 46 7v-73q-36 -9 -73 -9q-48 0 -86.5 21.5t-38.5 69.5q0 63 59 97l-57 161h-294l-56 -161h-130zM228 267h219l-110 311z" />
    <glyph glyph-name="aogonek" unicode="&#x105;" horiz-adv-x="579" 
d="M415 77q-49 -90 -176 -90q-88 0 -143.5 45t-55.5 117q0 76 61 115t177 54l63 9q35 6 48 18.5t13 36.5q0 36 -28.5 55t-79.5 19q-54 0 -85 -24.5t-33 -72.5l-116 12q11 78 74 125.5t158 47.5q233 0 229 -225q0 -11 -1 -59.5t-1 -75.5q0 -112 16 -184q-46 -22 -67.5 -39
t-21.5 -38q0 -37 46 -37q11 0 42 9v-73q-38 -10 -64 -10q-55 0 -92 23t-37 69q0 29 23.5 54.5t61.5 41.5q-10 57 -11 77zM404 234v25q-14 -4 -95 -18q-75 -11 -109 -32t-34 -57q0 -34 27 -55t72 -21q139 0 139 158z" />
    <glyph glyph-name="Cacute" unicode="&#x106;" horiz-adv-x="736" 
d="M425 762h-104l105 113h154zM691 215q-28 -109 -108 -168.5t-199 -59.5q-157 0 -246 103t-89 275q0 171 92 272t249 101q115 0 194 -59.5t106 -168.5l-117 -26q-16 72 -65.5 111t-121.5 39q-90 0 -148 -71t-58 -198q0 -128 57.5 -201t147.5 -73q75 0 124.5 38.5
t65.5 111.5z" />
    <glyph glyph-name="cacute" unicode="&#x107;" horiz-adv-x="569" 
d="M332 609h-91l93 116h140zM529 370l-110 -24q-9 43 -41 69t-84 26q-60 0 -97.5 -44t-37.5 -133t37.5 -133.5t97.5 -44.5q107 0 129 96l110 -24q-24 -81 -90 -126t-151 -45q-117 0 -186.5 77.5t-69.5 198.5t70.5 199t190.5 78q84 0 147 -46t85 -124z" />
    <glyph glyph-name="Ccircumflex" unicode="&#x108;" horiz-adv-x="736" 
d="M562 762h-122l-67 51l-68 -51h-121l138 113h105zM691 215q-28 -109 -108 -168.5t-199 -59.5q-157 0 -246 103t-89 275q0 171 92 272t249 101q115 0 194 -59.5t106 -168.5l-117 -26q-16 72 -65.5 111t-121.5 39q-90 0 -148 -71t-58 -198q0 -128 57.5 -201t147.5 -73
q75 0 124.5 38.5t65.5 111.5z" />
    <glyph glyph-name="ccircumflex" unicode="&#x109;" horiz-adv-x="569" 
d="M476 609h-110l-79 48l-80 -48h-109l143 116h95zM529 370l-110 -24q-9 43 -41 69t-84 26q-60 0 -97.5 -44t-37.5 -133t37.5 -133.5t97.5 -44.5q107 0 129 96l110 -24q-24 -81 -90 -126t-151 -45q-117 0 -186.5 77.5t-69.5 198.5t70.5 199t190.5 78q84 0 147 -46t85 -124z
" />
    <glyph glyph-name="Cdotaccent" unicode="&#x10a;" horiz-adv-x="736" 
d="M435 873v-108h-123v108h123zM691 215q-28 -109 -108 -168.5t-199 -59.5q-157 0 -246 103t-89 275q0 171 92 272t249 101q115 0 194 -59.5t106 -168.5l-117 -26q-16 72 -65.5 111t-121.5 39q-90 0 -148 -71t-58 -198q0 -128 57.5 -201t147.5 -73q75 0 124.5 38.5
t65.5 111.5z" />
    <glyph glyph-name="cdotaccent" unicode="&#x10b;" horiz-adv-x="569" 
d="M340 725v-111h-105v111h105zM529 370l-110 -24q-9 43 -41 69t-84 26q-60 0 -97.5 -44t-37.5 -133t37.5 -133.5t97.5 -44.5q107 0 129 96l110 -24q-24 -81 -90 -126t-151 -45q-117 0 -186.5 77.5t-69.5 198.5t70.5 199t190.5 78q84 0 147 -46t85 -124z" />
    <glyph glyph-name="Ccaron" unicode="&#x10c;" horiz-adv-x="736" 
d="M184 875h122l66 -52l69 52h121l-138 -113h-105zM691 215q-28 -109 -108 -168.5t-199 -59.5q-157 0 -246 103t-89 275q0 171 92 272t249 101q115 0 194 -59.5t106 -168.5l-117 -26q-16 72 -65.5 111t-121.5 39q-90 0 -148 -71t-58 -198q0 -128 57.5 -201t147.5 -73
q75 0 124.5 38.5t65.5 111.5z" />
    <glyph glyph-name="ccaron" unicode="&#x10d;" horiz-adv-x="569" 
d="M98 725h110l78 -48l81 48h109l-143 -116h-95zM529 370l-110 -24q-9 43 -41 69t-84 26q-60 0 -97.5 -44t-37.5 -133t37.5 -133.5t97.5 -44.5q107 0 129 96l110 -24q-24 -81 -90 -126t-151 -45q-117 0 -186.5 77.5t-69.5 198.5t70.5 199t190.5 78q84 0 147 -46t85 -124z
" />
    <glyph glyph-name="Dcaron" unicode="&#x10e;" horiz-adv-x="729" 
d="M170 875h122l66 -52l69 52h121l-138 -113h-105zM276 725q91 0 161 -17.5t127 -57t87 -112t30 -175.5t-30 -175.5t-87 -112.5t-127 -57.5t-161 -17.5h-198v725h198zM270 623h-65v-521h65q60 0 103.5 9t86.5 34.5t66 80.5t23 137t-23 136.5t-66 80t-86.5 34.5t-103.5 9z
" />
    <glyph glyph-name="dcaron" unicode="&#x10f;" horiz-adv-x="718" 
d="M426 725h119v-725h-119v71q-51 -84 -160 -84q-101 0 -166 75t-65 202q0 126 65 201t166 75q109 0 160 -84v269zM663 555h-77l30 170h117zM292 443q-62 0 -97.5 -47t-35.5 -132t35.5 -132.5t97.5 -47.5t100.5 45.5t38.5 134.5t-38.5 134t-100.5 45z" />
    <glyph glyph-name="Dcroat" unicode="&#x110;" horiz-adv-x="749" 
d="M296 725q91 0 161 -17.5t127 -57t87 -112t30 -175.5t-30 -175.5t-87 -112.5t-127 -57.5t-161 -17.5h-198v314h-84v106h84v305h198zM290 623h-65v-203h133v-106h-133v-212h65q60 0 103.5 9t86.5 34.5t66 80.5t23 137t-23 136.5t-66 80t-86.5 34.5t-103.5 9z" />
    <glyph glyph-name="dcroat" unicode="&#x111;" horiz-adv-x="617" 
d="M619 655v-79h-74v-576h-119v71q-51 -84 -160 -84q-101 0 -166 75t-65 202q0 126 65 201t166 75q109 0 160 -84v120h-131v79h131v70h119v-70h74zM292 84q62 0 100.5 45.5t38.5 134.5t-38.5 134t-100.5 45t-97.5 -47t-35.5 -132t35.5 -132.5t97.5 -47.5z" />
    <glyph glyph-name="Emacron" unicode="&#x112;" horiz-adv-x="625" 
d="M180 775v87h308v-87h-308zM78 725h513v-106h-386v-194h365v-105h-365v-213h386v-107h-513v725z" />
    <glyph glyph-name="emacron" unicode="&#x113;" horiz-adv-x="589" 
d="M448 716v-88h-308v88h308zM297 540q124 0 193.5 -85.5t61.5 -222.5h-395q2 -69 44.5 -107.5t101.5 -38.5q100 0 131 76l109 -22q-25 -69 -86 -111t-153 -42q-127 0 -197.5 80.5t-70.5 200.5t72.5 196t188.5 76zM157 319h274q-2 59 -40 93.5t-94 34.5q-52 0 -93 -31.5
t-47 -96.5z" />
    <glyph glyph-name="Ebreve" unicode="&#x114;" horiz-adv-x="625" 
d="M499 875q-11 -117 -165 -117q-152 0 -164 117h89q7 -51 76 -51t75 51h89zM78 725h513v-106h-386v-194h365v-105h-365v-213h386v-107h-513v725z" />
    <glyph glyph-name="ebreve" unicode="&#x115;" horiz-adv-x="589" 
d="M293 604q-154 0 -164 121h87q6 -55 78 -55q73 0 79 55h86q-12 -121 -166 -121zM297 540q124 0 193.5 -85.5t61.5 -222.5h-395q2 -69 44.5 -107.5t101.5 -38.5q100 0 131 76l109 -22q-25 -69 -86 -111t-153 -42q-127 0 -197.5 80.5t-70.5 200.5t72.5 196t188.5 76z
M157 319h274q-2 59 -40 93.5t-94 34.5q-52 0 -93 -31.5t-47 -96.5z" />
    <glyph glyph-name="Edotaccent" unicode="&#x116;" horiz-adv-x="625" 
d="M396 873v-108h-123v108h123zM78 725h513v-106h-386v-194h365v-105h-365v-213h386v-107h-513v725z" />
    <glyph glyph-name="edotaccent" unicode="&#x117;" horiz-adv-x="589" 
d="M347 725v-111h-105v111h105zM297 540q124 0 193.5 -85.5t61.5 -222.5h-395q2 -69 44.5 -107.5t101.5 -38.5q100 0 131 76l109 -22q-25 -69 -86 -111t-153 -42q-127 0 -197.5 80.5t-70.5 200.5t72.5 196t188.5 76zM157 319h274q-2 59 -40 93.5t-94 34.5q-52 0 -93 -31.5
t-47 -96.5z" />
    <glyph glyph-name="Eogonek" unicode="&#x118;" horiz-adv-x="625" 
d="M78 725h513v-106h-386v-194h365v-105h-365v-213h386v-107q-91 -45 -91 -78q0 -35 45 -35q18 0 46 7v-73q-36 -9 -73 -9q-47 0 -85 21.5t-38 69.5q0 61 69 97h-386v725z" />
    <glyph glyph-name="eogonek" unicode="&#x119;" horiz-adv-x="589" 
d="M367 -188q-55 0 -92 23t-37 69q0 44 45 82l6 1q-120 6 -186.5 85.5t-66.5 195.5q0 120 72.5 196t188.5 76q124 0 193.5 -85.5t61.5 -222.5h-395q3 -69 45 -107.5t98 -38.5q100 0 131 77l109 -26q-28 -73 -96 -114q-101 -60 -101 -100q0 -37 46 -37q11 0 42 9v-73
q-38 -10 -64 -10zM157 319h274q-2 59 -40 93.5t-94 34.5q-52 0 -93 -31.5t-47 -96.5z" />
    <glyph glyph-name="Ecaron" unicode="&#x11a;" horiz-adv-x="625" 
d="M145 875h122l66 -52l69 52h121l-138 -113h-105zM78 725h513v-106h-386v-194h365v-105h-365v-213h386v-107h-513v725z" />
    <glyph glyph-name="ecaron" unicode="&#x11b;" horiz-adv-x="589" 
d="M340 609h-95l-140 116h110l78 -48l81 48h109zM297 540q124 0 193.5 -85.5t61.5 -222.5h-395q2 -69 44.5 -107.5t101.5 -38.5q100 0 131 76l109 -22q-25 -69 -86 -111t-153 -42q-127 0 -197.5 80.5t-70.5 200.5t72.5 196t188.5 76zM157 319h274q-2 59 -40 93.5t-94 34.5
q-52 0 -93 -31.5t-47 -96.5z" />
    <glyph glyph-name="Gcircumflex" unicode="&#x11c;" horiz-adv-x="774" 
d="M566 762h-122l-67 51l-68 -51h-121l138 113h105zM697 521l-115 -26q-18 67 -67 103t-121 36q-96 0 -155 -70t-59 -199q0 -130 57.5 -202t155.5 -72q35 0 67 8.5t61.5 26.5t47.5 52t18 80v14h-185v107h303v-379h-100l-4 87q-67 -100 -222 -100q-153 0 -241.5 103
t-88.5 275q0 170 94 271.5t254 101.5q115 0 193.5 -57t106.5 -160z" />
    <glyph glyph-name="gcircumflex" unicode="&#x11d;" horiz-adv-x="615" 
d="M478 609h-110l-79 48l-80 -48h-109l143 116h95zM425 528h119v-474q0 -129 -64 -188.5t-192 -59.5q-88 0 -148.5 36.5t-78.5 111.5l115 17q11 -39 38 -55t80 -16q73 0 102 35t29 95v63q-51 -84 -160 -84q-101 0 -166 71.5t-65 194.5t65 194t166 71q109 0 160 -84v72z
M291 445q-63 0 -98 -44.5t-35 -125.5q0 -82 35 -127t98 -45q62 0 100.5 43t38.5 129t-38.5 128t-100.5 42z" />
    <glyph glyph-name="Gbreve" unicode="&#x11e;" horiz-adv-x="774" 
d="M542 875q-11 -117 -165 -117q-152 0 -164 117h89q7 -51 76 -51t75 51h89zM697 521l-115 -26q-18 67 -67 103t-121 36q-96 0 -155 -70t-59 -199q0 -130 57.5 -202t155.5 -72q35 0 67 8.5t61.5 26.5t47.5 52t18 80v14h-185v107h303v-379h-100l-4 87q-67 -100 -222 -100
q-153 0 -241.5 103t-88.5 275q0 170 94 271.5t254 101.5q115 0 193.5 -57t106.5 -160z" />
    <glyph glyph-name="gbreve" unicode="&#x11f;" horiz-adv-x="615" 
d="M288 604q-154 0 -164 121h87q6 -55 78 -55q73 0 79 55h86q-12 -121 -166 -121zM425 528h119v-474q0 -129 -64 -188.5t-192 -59.5q-88 0 -148.5 36.5t-78.5 111.5l115 17q11 -39 38 -55t80 -16q73 0 102 35t29 95v63q-51 -84 -160 -84q-101 0 -166 71.5t-65 194.5t65 194
t166 71q109 0 160 -84v72zM291 445q-63 0 -98 -44.5t-35 -125.5q0 -82 35 -127t98 -45q62 0 100.5 43t38.5 129t-38.5 128t-100.5 42z" />
    <glyph glyph-name="Gdotaccent" unicode="&#x120;" horiz-adv-x="774" 
d="M439 873v-108h-123v108h123zM697 521l-115 -26q-18 67 -67 103t-121 36q-96 0 -155 -70t-59 -199q0 -130 57.5 -202t155.5 -72q35 0 67 8.5t61.5 26.5t47.5 52t18 80v14h-185v107h303v-379h-100l-4 87q-67 -100 -222 -100q-153 0 -241.5 103t-88.5 275q0 170 94 271.5
t254 101.5q115 0 193.5 -57t106.5 -160z" />
    <glyph glyph-name="gdotaccent" unicode="&#x121;" horiz-adv-x="615" 
d="M342 725v-111h-105v111h105zM425 528h119v-474q0 -129 -64 -188.5t-192 -59.5q-88 0 -148.5 36.5t-78.5 111.5l115 17q11 -39 38 -55t80 -16q73 0 102 35t29 95v63q-51 -84 -160 -84q-101 0 -166 71.5t-65 194.5t65 194t166 71q109 0 160 -84v72zM291 445
q-63 0 -98 -44.5t-35 -125.5q0 -82 35 -127t98 -45q62 0 100.5 43t38.5 129t-38.5 128t-100.5 42z" />
    <glyph glyph-name="Gcommaaccent" unicode="&#x122;" horiz-adv-x="774" 
d="M697 521l-115 -26q-18 67 -67 103t-121 36q-96 0 -155 -70t-59 -199q0 -130 57.5 -202t155.5 -72q35 0 67 8.5t61.5 26.5t47.5 52t18 80v14h-185v107h303v-379h-100l-4 87q-67 -100 -222 -100q-153 0 -241.5 103t-88.5 275q0 170 94 271.5t254 101.5q115 0 193.5 -57
t106.5 -160zM328 -36h101v-102l-44 -89h-60l39 96h-36v95z" />
    <glyph glyph-name="gcommaaccent" unicode="&#x123;" horiz-adv-x="615" 
d="M338 605h-101v102l44 89h61l-39 -96h35v-95zM425 528h119v-474q0 -129 -64 -188.5t-192 -59.5q-88 0 -148.5 36.5t-78.5 111.5l115 17q11 -39 38 -55t80 -16q73 0 102 35t29 95v63q-51 -84 -160 -84q-101 0 -166 71.5t-65 194.5t65 194t166 71q109 0 160 -84v72zM291 445
q-63 0 -98 -44.5t-35 -125.5q0 -82 35 -127t98 -45q62 0 100.5 43t38.5 129t-38.5 128t-100.5 42z" />
    <glyph glyph-name="Hcircumflex" unicode="&#x124;" horiz-adv-x="756" 
d="M567 762h-122l-67 51l-68 -51h-121l138 113h105zM678 725v-725h-127v320h-346v-320h-127v725h127v-300h346v300h127z" />
    <glyph glyph-name="hcircumflex" unicode="&#x125;" horiz-adv-x="599" 
d="M321 762h-122l-67 51l-68 -51h-121l138 113h105zM191 453q48 87 163 87q183 0 183 -212v-328h-119v299q0 25 -2 43.5t-8 38.5t-16.5 32.5t-30 21t-45.5 8.5q-125 0 -125 -167v-276h-119v725h119v-272z" />
    <glyph glyph-name="Hbar" unicode="&#x126;" horiz-adv-x="757" 
d="M678 725v-115h64v-96h-64v-514h-127v320h-346v-320h-127v514h-63v96h63v115h127v-115h346v115h127zM551 425v89h-346v-89h346z" />
    <glyph glyph-name="hbar" unicode="&#x127;" horiz-adv-x="606" 
d="M198 655h125v-79h-125v-123q48 87 163 87q183 0 183 -212v-328h-119v299q0 25 -2 43.5t-8 38.5t-16.5 32.5t-30 21t-45.5 8.5q-125 0 -125 -167v-276h-119v576h-84v79h84v70h119v-70z" />
    <glyph glyph-name="Itilde" unicode="&#x128;" horiz-adv-x="283" 
d="M252 875h83q-18 -113 -128 -113q-33 0 -72 19.5t-56 19.5q-41 0 -47 -39h-85q19 113 128 113q33 0 70.5 -19.5t56.5 -19.5q41 0 50 39zM205 0h-127v725h127v-725z" />
    <glyph glyph-name="itilde" unicode="&#x129;" horiz-adv-x="263" 
d="M242 735h85q-11 -70 -48 -98.5t-81 -28.5q-34 0 -73 22.5t-57 22.5q-40 0 -48 -44h-85q11 69 48 98t81 29q35 0 71.5 -22.5t56.5 -22.5q41 0 50 44zM191 528v-528h-119v528h119z" />
    <glyph glyph-name="Imacron" unicode="&#x12a;" horiz-adv-x="283" 
d="M-13 775v87h308v-87h-308zM205 0h-127v725h127v-725z" />
    <glyph glyph-name="imacron" unicode="&#x12b;" horiz-adv-x="263" 
d="M-23 628v88h308v-88h-308zM191 528v-528h-119v528h119z" />
    <glyph glyph-name="Ibreve" unicode="&#x12c;" horiz-adv-x="283" 
d="M306 875q-11 -117 -165 -117q-152 0 -164 117h89q7 -51 76 -51t75 51h89zM205 0h-127v725h127v-725z" />
    <glyph glyph-name="ibreve" unicode="&#x12d;" horiz-adv-x="263" 
d="M130 604q-154 0 -164 121h87q6 -55 78 -55q73 0 79 55h86q-12 -121 -166 -121zM191 528v-528h-119v528h119z" />
    <glyph glyph-name="Iogonek" unicode="&#x12e;" horiz-adv-x="283" 
d="M205 0q-91 -45 -91 -78q0 -35 45 -35q18 0 46 7v-73q-36 -9 -73 -9q-47 0 -85 21.5t-38 69.5q0 61 69 97v725h127v-725z" />
    <glyph glyph-name="iogonek" unicode="&#x12f;" horiz-adv-x="263" 
d="M191 725v-120h-119v120h119zM72 0v528h119v-528q-45 -22 -66.5 -39t-21.5 -38q0 -37 46 -37q11 0 42 9v-73q-38 -10 -64 -10q-55 0 -92 23t-37 69q0 58 73 96h1z" />
    <glyph glyph-name="Idotaccent" unicode="&#x130;" horiz-adv-x="283" 
d="M203 873v-108h-123v108h123zM205 0h-127v725h127v-725z" />
    <glyph glyph-name="dotlessi" unicode="&#x131;" horiz-adv-x="263" 
d="M191 528v-528h-119v528h119z" />
    <glyph glyph-name="Jcircumflex" unicode="&#x134;" horiz-adv-x="591" 
d="M644 762h-122l-67 51l-68 -51h-121l138 113h105zM16 227l126 18q0 -75 32 -114.5t91 -39.5q58 0 89.5 39.5t31.5 114.5v480h127v-480q0 -119 -65 -188.5t-183 -69.5q-115 0 -179.5 64t-69.5 176z" />
    <glyph glyph-name="jcircumflex" unicode="&#x135;" horiz-adv-x="263" 
d="M320 609h-110l-79 48l-80 -48h-109l143 116h95zM72 538h119v-546q0 -100 -32 -133.5t-124 -33.5h-40v92h22q36 0 45.5 13t9.5 57v551z" />
    <glyph glyph-name="Kcommaaccent" unicode="&#x136;" horiz-adv-x="656" 
d="M335 360l321 -360h-169l-282 315v-315h-127v725h127v-352l289 352h145zM334 -131v95h101v-102l-44 -89h-60l39 96h-36z" />
    <glyph glyph-name="kcommaaccent" unicode="&#x137;" horiz-adv-x="545" 
d="M316 275l229 -275h-147l-207 246v-246h-119v725h119v-439l210 242h136zM260 -131v95h101v-102l-44 -89h-60l39 96h-36z" />
    <glyph glyph-name="Lacute" unicode="&#x139;" horiz-adv-x="575" 
d="M197 762h-104l105 113h154zM205 107h365v-107h-492v725h127v-618z" />
    <glyph glyph-name="lacute" unicode="&#x13a;" horiz-adv-x="263" 
d="M183 762h-104l105 113h154zM191 0h-119v725h119v-725z" />
    <glyph glyph-name="Lcommaaccent" unicode="&#x13b;" horiz-adv-x="575" 
d="M205 107h365v-107h-492v725h127v-618zM275 -36h101v-102l-44 -89h-60l39 96h-36v95z" />
    <glyph glyph-name="lcommaaccent" unicode="&#x13c;" horiz-adv-x="263" 
d="M191 0h-119v725h119v-725zM82 -36h101v-102l-44 -89h-60l39 96h-36v95z" />
    <glyph glyph-name="Lcaron" unicode="&#x13d;" horiz-adv-x="575" 
d="M205 107h365v-107h-492v725h127v-618zM378 555h-77l30 170h117z" />
    <glyph glyph-name="lcaron" unicode="&#x13e;" horiz-adv-x="359" 
d="M191 0h-119v725h119v-725zM309 555h-77l30 170h117z" />
    <glyph glyph-name="Ldot" unicode="&#x13f;" horiz-adv-x="575" 
d="M205 107h365v-107h-492v725h127v-618zM470 481v-108h-123v108h123z" />
    <glyph glyph-name="ldot" unicode="&#x140;" horiz-adv-x="377" 
d="M191 0h-119v725h119v-725zM357 425v-111h-105v111h105z" />
    <glyph glyph-name="Lslash" unicode="&#x141;" horiz-adv-x="597" 
d="M227 449l174 114v-112l-174 -114v-230h365v-107h-492v255l-95 -62v112l95 62v358h127v-276z" />
    <glyph glyph-name="lslash" unicode="&#x142;" horiz-adv-x="315" 
d="M217 470l73 45v-98l-73 -45v-372h-119v300l-73 -44v98l73 44v327h119v-255z" />
    <glyph glyph-name="Nacute" unicode="&#x143;" horiz-adv-x="756" 
d="M430 762h-104l105 113h154zM508 0l-307 579v-579h-123v725h170l307 -579v579h123v-725h-170z" />
    <glyph glyph-name="nacute" unicode="&#x144;" horiz-adv-x="599" 
d="M349 609h-91l93 116h140zM191 453q48 87 163 87q183 0 183 -212v-328h-119v299q0 25 -2 43.5t-8 38.5t-16.5 32.5t-30 21t-45.5 8.5q-125 0 -125 -167v-276h-119v528h119v-75z" />
    <glyph glyph-name="Ncommaaccent" unicode="&#x145;" horiz-adv-x="756" 
d="M508 0l-307 579v-579h-123v725h170l307 -579v579h123v-725h-170zM329 -36h101v-102l-44 -89h-60l39 96h-36v95z" />
    <glyph glyph-name="ncommaaccent" unicode="&#x146;" horiz-adv-x="599" 
d="M191 453q48 87 163 87q183 0 183 -212v-328h-119v299q0 25 -2 43.5t-8 38.5t-16.5 32.5t-30 21t-45.5 8.5q-125 0 -125 -167v-276h-119v528h119v-75zM255 -36h101v-102l-44 -89h-60l39 96h-36v95z" />
    <glyph glyph-name="Ncaron" unicode="&#x147;" horiz-adv-x="756" 
d="M189 875h122l66 -52l69 52h121l-138 -113h-105zM508 0l-307 579v-579h-123v725h170l307 -579v579h123v-725h-170z" />
    <glyph glyph-name="ncaron" unicode="&#x148;" horiz-adv-x="599" 
d="M115 725h110l78 -48l81 48h109l-143 -116h-95zM191 453q48 87 163 87q183 0 183 -212v-328h-119v299q0 25 -2 43.5t-8 38.5t-16.5 32.5t-30 21t-45.5 8.5q-125 0 -125 -167v-276h-119v528h119v-75z" />
    <glyph glyph-name="Eng" unicode="&#x14a;" horiz-adv-x="757" 
d="M201 579v-579h-123v725h170l307 -503v503h123v-734q0 -103 -36.5 -135t-139.5 -32h-54v99h26q47 0 62 12t15 54v12z" />
    <glyph glyph-name="eng" unicode="&#x14b;" horiz-adv-x="599" 
d="M418 299q0 32 -3.5 54t-13 44t-31 33.5t-54.5 11.5q-125 0 -125 -166v-276h-119v528h119v-75q48 87 163 87q183 0 183 -212v-363q0 -75 -36.5 -109.5t-112.5 -34.5q-35 0 -71 6l8 89q23 -4 43 -4q26 0 38 12.5t12 46.5v328z" />
    <glyph glyph-name="Omacron" unicode="&#x14c;" horiz-adv-x="790" 
d="M241 775v87h308v-87h-308zM395 -13q-158 0 -252 103.5t-94 272.5t94 272t252 103t252 -103t94 -272t-94 -272.5t-252 -103.5zM395 91q94 0 154.5 72t60.5 200t-60.5 199.5t-154.5 71.5t-154.5 -71.5t-60.5 -199.5t60.5 -200t154.5 -72z" />
    <glyph glyph-name="omacron" unicode="&#x14d;" horiz-adv-x="596" 
d="M144 628v88h308v-88h-308zM560 263q0 -135 -77 -205.5t-185 -70.5t-185 70.5t-77 205.5t77 206t185 71t185 -71t77 -206zM437 263q0 87 -39.5 133.5t-99.5 46.5t-99.5 -46.5t-39.5 -133.5t39.5 -133t99.5 -46t99.5 46t39.5 133z" />
    <glyph glyph-name="Obreve" unicode="&#x14e;" horiz-adv-x="790" 
d="M560 875q-11 -117 -165 -117q-152 0 -164 117h89q7 -51 76 -51t75 51h89zM395 -13q-158 0 -252 103.5t-94 272.5t94 272t252 103t252 -103t94 -272t-94 -272.5t-252 -103.5zM395 91q94 0 154.5 72t60.5 200t-60.5 199.5t-154.5 71.5t-154.5 -71.5t-60.5 -199.5t60.5 -200
t154.5 -72z" />
    <glyph glyph-name="obreve" unicode="&#x14f;" horiz-adv-x="596" 
d="M297 604q-154 0 -164 121h87q6 -55 78 -55q73 0 79 55h86q-12 -121 -166 -121zM560 263q0 -135 -77 -205.5t-185 -70.5t-185 70.5t-77 205.5t77 206t185 71t185 -71t77 -206zM437 263q0 87 -39.5 133.5t-99.5 46.5t-99.5 -46.5t-39.5 -133.5t39.5 -133t99.5 -46t99.5 46
t39.5 133z" />
    <glyph glyph-name="Ohungarumlaut" unicode="&#x150;" horiz-adv-x="790" 
d="M356 762h-104l105 113h154zM536 762h-103l105 113h153zM395 -13q-158 0 -252 103.5t-94 272.5t94 272t252 103t252 -103t94 -272t-94 -272.5t-252 -103.5zM395 91q94 0 154.5 72t60.5 200t-60.5 199.5t-154.5 71.5t-154.5 -71.5t-60.5 -199.5t60.5 -200t154.5 -72z" />
    <glyph glyph-name="ohungarumlaut" unicode="&#x151;" horiz-adv-x="596" 
d="M255 609h-93l93 116h140zM433 609h-91l92 116h141zM560 263q0 -135 -77 -205.5t-185 -70.5t-185 70.5t-77 205.5t77 206t185 71t185 -71t77 -206zM437 263q0 87 -39.5 133.5t-99.5 46.5t-99.5 -46.5t-39.5 -133.5t39.5 -133t99.5 -46t99.5 46t39.5 133z" />
    <glyph glyph-name="OE" unicode="&#x152;" horiz-adv-x="1144" 
d="M618 75q-80 -88 -223 -88q-158 0 -252 104t-94 274q0 168 94.5 270.5t251.5 102.5q143 0 223 -85v72h492v-106h-386v-194h364v-105h-364v-213h386v-107h-492v75zM395 634q-94 0 -154.5 -70.5t-60.5 -198.5q0 -129 60.5 -201.5t154.5 -72.5q95 0 155.5 72.5t60.5 201.5
q0 128 -60.5 198.5t-155.5 70.5z" />
    <glyph glyph-name="oe" unicode="&#x153;" horiz-adv-x="977" 
d="M694 -13q-135 0 -201 97q-65 -97 -195 -97q-108 0 -185 70.5t-77 205.5t77 206t185 71q129 0 194 -96q64 96 194 96q124 0 193.5 -85.5t61.5 -222.5h-395q3 -69 45 -107.5t98 -38.5q100 0 131 77l109 -26q-26 -65 -85.5 -107.5t-149.5 -42.5zM546 319h274q-2 59 -40 93.5
t-94 34.5q-52 0 -93 -31.5t-47 -96.5zM437 263q0 87 -39.5 133.5t-99.5 46.5t-99.5 -46.5t-39.5 -133.5t39.5 -133t99.5 -46t99.5 46t39.5 133z" />
    <glyph glyph-name="Racute" unicode="&#x154;" horiz-adv-x="689" 
d="M396 762h-104l105 113h154zM366 306q-12 -1 -38 -1h-123v-305h-127v725h231q168 0 245.5 -46t77.5 -163q0 -140 -136 -187l166 -329h-143zM205 623v-217h126q87 0 129 23.5t42 85.5q0 65 -44 86.5t-131 21.5h-122z" />
    <glyph glyph-name="racute" unicode="&#x155;" horiz-adv-x="379" 
d="M264 609h-91l93 116h140zM366 407q-30 3 -57 3q-60 0 -89 -30.5t-29 -107.5v-272h-119v528h117v-96q46 95 146 97q13 0 31 -2v-120z" />
    <glyph glyph-name="Rcommaaccent" unicode="&#x156;" horiz-adv-x="689" 
d="M366 306q-12 -1 -38 -1h-123v-305h-127v725h231q168 0 245.5 -46t77.5 -163q0 -140 -136 -187l166 -329h-143zM205 623v-217h126q87 0 129 23.5t42 85.5q0 65 -44 86.5t-131 21.5h-122zM295 -36h101v-102l-44 -89h-60l39 96h-36v95z" />
    <glyph glyph-name="rcommaaccent" unicode="&#x157;" horiz-adv-x="379" 
d="M366 407q-30 3 -57 3q-60 0 -89 -30.5t-29 -107.5v-272h-119v528h117v-96q46 95 146 97q13 0 31 -2v-120zM79 -36h101v-102l-44 -89h-60l39 96h-36v95z" />
    <glyph glyph-name="Rcaron" unicode="&#x158;" horiz-adv-x="689" 
d="M155 875h122l66 -52l69 52h121l-138 -113h-105zM366 306q-12 -1 -38 -1h-123v-305h-127v725h231q168 0 245.5 -46t77.5 -163q0 -140 -136 -187l166 -329h-143zM205 623v-217h126q87 0 129 23.5t42 85.5q0 65 -44 86.5t-131 21.5h-122z" />
    <glyph glyph-name="rcaron" unicode="&#x159;" horiz-adv-x="379" 
d="M30 725h110l78 -48l81 48h109l-143 -116h-95zM366 407q-30 3 -57 3q-60 0 -89 -30.5t-29 -107.5v-272h-119v528h117v-96q46 95 146 97q13 0 31 -2v-120z" />
    <glyph glyph-name="Sacute" unicode="&#x15a;" horiz-adv-x="658" 
d="M379 762h-104l105 113h154zM260 329q-94 19 -151.5 69t-57.5 136q0 96 82.5 150t191.5 54q105 0 179.5 -49.5t99.5 -146.5l-117 -24q-15 60 -62 88t-107 28q-51 0 -95 -24t-44 -72q0 -75 108 -96l89 -17q54 -11 93.5 -24.5t77 -38t57.5 -63.5t20 -91q0 -103 -86 -162
t-202 -59q-122 0 -202 61.5t-100 168.5l122 26q34 -152 186 -152q67 0 111 29t44 80q0 84 -149 112z" />
    <glyph glyph-name="sacute" unicode="&#x15b;" horiz-adv-x="536" 
d="M313 609h-91l93 116h140zM383 371q-19 78 -124 78q-42 0 -71 -15t-29 -40q0 -48 78 -64l73 -15q94 -19 143.5 -53t49.5 -104q0 -80 -66 -125.5t-164 -45.5q-96 0 -159 46.5t-78 120.5l111 23q18 -100 130 -100q50 0 80 18t30 49q0 52 -96 72l-81 17q-77 16 -120 51.5
t-43 103.5t63.5 110t156.5 42q80 0 142 -39t82 -108z" />
    <glyph glyph-name="Scircumflex" unicode="&#x15c;" horiz-adv-x="658" 
d="M516 762h-122l-67 51l-68 -51h-121l138 113h105zM260 329q-94 19 -151.5 69t-57.5 136q0 96 82.5 150t191.5 54q105 0 179.5 -49.5t99.5 -146.5l-117 -24q-15 60 -62 88t-107 28q-51 0 -95 -24t-44 -72q0 -75 108 -96l89 -17q54 -11 93.5 -24.5t77 -38t57.5 -63.5t20 -91
q0 -103 -86 -162t-202 -59q-122 0 -202 61.5t-100 168.5l122 26q34 -152 186 -152q67 0 111 29t44 80q0 84 -149 112z" />
    <glyph glyph-name="scircumflex" unicode="&#x15d;" horiz-adv-x="536" 
d="M457 609h-110l-79 48l-80 -48h-109l143 116h95zM383 371q-19 78 -124 78q-42 0 -71 -15t-29 -40q0 -48 78 -64l73 -15q94 -19 143.5 -53t49.5 -104q0 -80 -66 -125.5t-164 -45.5q-96 0 -159 46.5t-78 120.5l111 23q18 -100 130 -100q50 0 80 18t30 49q0 52 -96 72l-81 17
q-77 16 -120 51.5t-43 103.5t63.5 110t156.5 42q80 0 142 -39t82 -108z" />
    <glyph glyph-name="Scedilla" unicode="&#x15e;" horiz-adv-x="658" 
d="M624 208q0 -103 -84.5 -161.5t-199.5 -59.5l-22 -35q18 3 35 3q34 -1 56 -19.5t22 -48.5q0 -38 -34 -60t-79 -22q-56 0 -95 19l17 43q26 -14 58 -14q57 0 57 30q0 29 -41 29q-25 0 -38 -9l-30 17l43 70q-103 11 -170.5 71t-84.5 156l122 26q34 -152 186 -152q67 0 111 29
t44 80q0 84 -149 112l-88 17q-94 19 -151.5 69t-57.5 136q0 96 82.5 150t191.5 54q105 0 179.5 -49.5t99.5 -146.5l-117 -24q-15 60 -62 88t-107 28q-51 0 -95 -24t-44 -72q0 -75 108 -96l89 -17q54 -11 93.5 -24.5t77 -38t57.5 -63.5t20 -91z" />
    <glyph glyph-name="scedilla" unicode="&#x15f;" horiz-adv-x="536" 
d="M503 158q0 -78 -63.5 -123.5t-158.5 -47.5l-22 -35q18 3 35 3q34 -1 56 -19.5t22 -48.5q0 -38 -34 -60t-79 -22q-56 0 -95 19l17 43q26 -14 58 -14q57 0 57 30q0 29 -41 29q-25 0 -38 -9l-30 17l43 70q-79 10 -130 54.5t-64 109.5l111 23q18 -100 130 -100q50 0 80 18
t30 49q0 52 -96 72l-81 17q-77 16 -120 51.5t-43 103.5t63.5 110t156.5 42q80 0 142 -39t82 -108l-108 -22q-19 78 -124 78q-42 0 -71 -15t-29 -40q0 -48 78 -64l73 -15q94 -19 143.5 -53t49.5 -104z" />
    <glyph glyph-name="Scaron" unicode="&#x160;" horiz-adv-x="658" 
d="M138 875h122l66 -52l69 52h121l-138 -113h-105zM260 329q-94 19 -151.5 69t-57.5 136q0 96 82.5 150t191.5 54q105 0 179.5 -49.5t99.5 -146.5l-117 -24q-15 60 -62 88t-107 28q-51 0 -95 -24t-44 -72q0 -75 108 -96l89 -17q54 -11 93.5 -24.5t77 -38t57.5 -63.5t20 -91
q0 -103 -86 -162t-202 -59q-122 0 -202 61.5t-100 168.5l122 26q34 -152 186 -152q67 0 111 29t44 80q0 84 -149 112z" />
    <glyph glyph-name="scaron" unicode="&#x161;" horiz-adv-x="536" 
d="M79 725h110l78 -48l81 48h109l-143 -116h-95zM383 371q-19 78 -124 78q-42 0 -71 -15t-29 -40q0 -48 78 -64l73 -15q94 -19 143.5 -53t49.5 -104q0 -80 -66 -125.5t-164 -45.5q-96 0 -159 46.5t-78 120.5l111 23q18 -100 130 -100q50 0 80 18t30 49q0 52 -96 72l-81 17
q-77 16 -120 51.5t-43 103.5t63.5 110t156.5 42q80 0 142 -39t82 -108z" />
    <glyph glyph-name="uni0162" unicode="&#x162;" horiz-adv-x="603" 
d="M238 619h-228v106h583v-106h-228v-619h-127v619zM250 -36h101v-102l-44 -89h-60l39 96h-36v95z" />
    <glyph glyph-name="uni0163" unicode="&#x163;" horiz-adv-x="350" 
d="M208 144q0 -33 13.5 -46t40.5 -13q20 0 43 4l8 -89q-36 -6 -71 -6q-77 0 -115 34.5t-38 109.5v304h-80v86h80v142h119v-142h108v-86h-108v-298zM113 -36h101v-102l-44 -89h-60l39 96h-36v95z" />
    <glyph glyph-name="Tcaron" unicode="&#x164;" horiz-adv-x="603" 
d="M112 875h122l66 -52l69 52h121l-138 -113h-105zM238 619h-228v106h583v-106h-228v-619h-127v619z" />
    <glyph glyph-name="tcaron" unicode="&#x165;" horiz-adv-x="410" 
d="M355 574h-77l30 150h117zM208 144q0 -33 13.5 -46t40.5 -13q20 0 43 4l8 -89q-36 -6 -71 -6q-77 0 -115 34.5t-38 109.5v304h-80v86h80v142h119v-142h108v-86h-108v-298z" />
    <glyph glyph-name="Tbar" unicode="&#x166;" horiz-adv-x="600" 
d="M238 314h-165v106h165v199h-228v106h583v-106h-228v-199h161v-106h-161v-314h-127v314z" />
    <glyph glyph-name="tbar" unicode="&#x167;" horiz-adv-x="356" 
d="M322 442h-108v-80h108v-91h-108v-127q0 -33 13.5 -46t40.5 -13q20 0 43 4l8 -89q-36 -6 -71 -6q-77 0 -115 34.5t-38 109.5v133h-80v91h80v80h-80v86h80v142h119v-142h108v-86z" />
    <glyph glyph-name="Utilde" unicode="&#x168;" horiz-adv-x="727" 
d="M474 875h83q-18 -113 -128 -113q-33 0 -72 19.5t-56 19.5q-41 0 -47 -39h-85q19 113 128 113q33 0 70.5 -19.5t56.5 -19.5q41 0 50 39zM194 725v-428q0 -106 36.5 -156t133.5 -50q95 0 132 52t37 158v424h127v-419q0 -171 -68.5 -245t-227.5 -74t-228 71t-69 244v423h127
z" />
    <glyph glyph-name="utilde" unicode="&#x169;" horiz-adv-x="595" 
d="M405 735h85q-11 -70 -48 -98.5t-81 -28.5q-34 0 -73 22.5t-57 22.5q-40 0 -48 -44h-85q11 69 48 98t81 29q35 0 72 -22.5t56 -22.5q41 0 50 44zM404 74q-48 -87 -159 -87q-180 0 -180 212v329h119v-300q0 -32 3 -54t12.5 -44.5t30.5 -34t53 -11.5q121 0 121 167v277h119
v-528h-119v74z" />
    <glyph glyph-name="Umacron" unicode="&#x16a;" horiz-adv-x="727" 
d="M209 775v87h308v-87h-308zM194 725v-428q0 -106 36.5 -156t133.5 -50q95 0 132 52t37 158v424h127v-419q0 -171 -68.5 -245t-227.5 -74t-228 71t-69 244v423h127z" />
    <glyph glyph-name="umacron" unicode="&#x16b;" horiz-adv-x="595" 
d="M140 628v88h308v-88h-308zM404 74q-48 -87 -159 -87q-180 0 -180 212v329h119v-300q0 -32 3 -54t12.5 -44.5t30.5 -34t53 -11.5q121 0 121 167v277h119v-528h-119v74z" />
    <glyph glyph-name="Ubreve" unicode="&#x16c;" horiz-adv-x="727" 
d="M528 875q-11 -117 -165 -117q-152 0 -164 117h89q7 -51 76 -51t75 51h89zM194 725v-428q0 -106 36.5 -156t133.5 -50q95 0 132 52t37 158v424h127v-419q0 -171 -68.5 -245t-227.5 -74t-228 71t-69 244v423h127z" />
    <glyph glyph-name="ubreve" unicode="&#x16d;" horiz-adv-x="595" 
d="M293 604q-154 0 -164 121h87q6 -55 78 -55q73 0 79 55h86q-12 -121 -166 -121zM404 74q-48 -87 -159 -87q-180 0 -180 212v329h119v-300q0 -32 3 -54t12.5 -44.5t30.5 -34t53 -11.5q121 0 121 167v277h119v-528h-119v74z" />
    <glyph glyph-name="Uring" unicode="&#x16e;" horiz-adv-x="727" 
d="M454 839q0 -37 -26 -61t-65 -24q-38 0 -64 24.5t-26 60.5q0 37 26.5 61t63.5 24q38 0 64.5 -24t26.5 -61zM320 839q0 -18 13 -30t30 -12q18 0 30.5 12t12.5 30t-12.5 30.5t-30.5 12.5q-17 0 -30 -12.5t-13 -30.5zM194 725v-428q0 -106 36.5 -156t133.5 -50q95 0 132 52
t37 158v424h127v-419q0 -171 -68.5 -245t-227.5 -74t-228 71t-69 244v423h127z" />
    <glyph glyph-name="uring" unicode="&#x16f;" horiz-adv-x="595" 
d="M387 692q0 -38 -27 -62.5t-66 -24.5t-66 24.5t-27 62.5q0 37 27 62t66 25t66 -25t27 -62zM253 692q0 -18 12 -29.5t29 -11.5t29.5 11.5t12.5 29.5t-12.5 30t-29.5 12t-29 -12t-12 -30zM404 74q-48 -87 -159 -87q-180 0 -180 212v329h119v-300q0 -32 3 -54t12.5 -44.5
t30.5 -34t53 -11.5q121 0 121 167v277h119v-528h-119v74z" />
    <glyph glyph-name="Uhungarumlaut" unicode="&#x170;" horiz-adv-x="727" 
d="M324 762h-104l105 113h154zM504 762h-103l105 113h153zM194 725v-428q0 -106 36.5 -156t133.5 -50q95 0 132 52t37 158v424h127v-419q0 -171 -68.5 -245t-227.5 -74t-228 71t-69 244v423h127z" />
    <glyph glyph-name="uhungarumlaut" unicode="&#x171;" horiz-adv-x="595" 
d="M251 609h-93l93 116h140zM429 609h-91l92 116h141zM404 74q-48 -87 -159 -87q-180 0 -180 212v329h119v-300q0 -32 3 -54t12.5 -44.5t30.5 -34t53 -11.5q121 0 121 167v277h119v-528h-119v74z" />
    <glyph glyph-name="Uogonek" unicode="&#x172;" horiz-adv-x="727" 
d="M258 -97q0 51 51 86q-128 11 -185 83t-57 230v423h127v-428q0 -106 36.5 -156t133.5 -50q95 0 132 52t37 158v424h127v-419q0 -149 -49 -220t-166 -98q-33 -7 -57.5 -27t-24.5 -39q0 -35 45 -35q18 0 46 7v-73q-36 -9 -73 -9q-47 0 -85 21.5t-38 69.5z" />
    <glyph glyph-name="uogonek" unicode="&#x173;" horiz-adv-x="595" 
d="M404 0v74q-48 -87 -159 -87q-180 0 -180 212v329h119v-300q0 -32 3 -54t12.5 -44.5t30.5 -34t53 -11.5q121 0 121 167v277h119v-528q-45 -22 -66.5 -39t-21.5 -38q0 -37 46 -37q11 0 42 9v-73q-38 -10 -64 -10q-55 0 -92 23t-37 69q0 58 73 96h1z" />
    <glyph glyph-name="Wcircumflex" unicode="&#x174;" horiz-adv-x="906" 
d="M641 762h-122l-67 51l-68 -51h-121l138 113h105zM651 164l110 561h133l-169 -725h-150l-122 556l-120 -556h-152l-170 725h138l116 -560l115 560h147z" />
    <glyph glyph-name="wcircumflex" unicode="&#x175;" horiz-adv-x="744" 
d="M561 609h-110l-79 48l-80 -48h-109l143 116h95zM310 528h123l93 -372l79 372h129l-143 -528h-113l-106 388l-106 -388h-113l-143 528h129l79 -372z" />
    <glyph glyph-name="Ycircumflex" unicode="&#x176;" horiz-adv-x="653" 
d="M515 762h-122l-67 51l-68 -51h-121l138 113h105zM145 725l180 -324l185 324h143l-267 -445v-280h-127v282l-259 443h145z" />
    <glyph glyph-name="ycircumflex" unicode="&#x177;" horiz-adv-x="506" 
d="M442 609h-110l-79 48l-80 -48h-109l143 116h95zM126 -175l68 189l-189 514h130l122 -376l122 376h122l-253 -703h-122z" />
    <glyph glyph-name="Ydieresis" unicode="&#x178;" horiz-adv-x="653" 
d="M261 873v-108h-105v108h105zM497 873v-108h-105v108h105zM145 725l180 -324l185 324h143l-267 -445v-280h-127v282l-259 443h145z" />
    <glyph glyph-name="Zacute" unicode="&#x179;" horiz-adv-x="636" 
d="M371 762h-104l105 113h154zM593 622l-405 -512h417v-110h-572v103l406 512h-374v110h528v-103z" />
    <glyph glyph-name="zacute" unicode="&#x17a;" horiz-adv-x="504" 
d="M297 609h-91l93 116h140zM31 91l288 346h-268v91h416v-91l-289 -346h296v-91h-443v91z" />
    <glyph glyph-name="Zdotaccent" unicode="&#x17b;" horiz-adv-x="636" 
d="M381 873v-108h-123v108h123zM593 622l-405 -512h417v-110h-572v103l406 512h-374v110h528v-103z" />
    <glyph glyph-name="zdotaccent" unicode="&#x17c;" horiz-adv-x="504" 
d="M305 725v-111h-105v111h105zM31 91l288 346h-268v91h416v-91l-289 -346h296v-91h-443v91z" />
    <glyph glyph-name="Zcaron" unicode="&#x17d;" horiz-adv-x="636" 
d="M130 875h122l66 -52l69 52h121l-138 -113h-105zM593 622l-405 -512h417v-110h-572v103l406 512h-374v110h528v-103z" />
    <glyph glyph-name="zcaron" unicode="&#x17e;" horiz-adv-x="504" 
d="M63 725h110l78 -48l81 48h109l-143 -116h-95zM31 91l288 346h-268v91h416v-91l-289 -346h296v-91h-443v91z" />
    <glyph glyph-name="uni018F" unicode="&#x18f;" horiz-adv-x="785" 
d="M602 423q-6 101 -65.5 156t-143.5 55q-70 0 -121.5 -31.5t-72.5 -87.5l-124 18q34 103 118.5 154t197.5 51q158 0 251 -100t93 -273q0 -174 -93.5 -276t-250.5 -102q-177 0 -266.5 124.5t-72.5 311.5h550zM603 316h-420q3 -107 61.5 -166t146.5 -59q89 0 147 58t65 167z
" />
    <glyph glyph-name="Scommaaccent" unicode="&#x218;" horiz-adv-x="658" 
d="M260 329q-94 19 -151.5 69t-57.5 136q0 96 82.5 150t191.5 54q105 0 179.5 -49.5t99.5 -146.5l-117 -24q-15 60 -62 88t-107 28q-51 0 -95 -24t-44 -72q0 -75 108 -96l89 -17q54 -11 93.5 -24.5t77 -38t57.5 -63.5t20 -91q0 -103 -86 -162t-202 -59q-122 0 -202 61.5
t-100 168.5l122 26q34 -152 186 -152q67 0 111 29t44 80q0 84 -149 112zM278 -36h101v-102l-44 -89h-60l39 96h-36v95z" />
    <glyph glyph-name="scommaaccent" unicode="&#x219;" horiz-adv-x="536" 
d="M383 371q-19 78 -124 78q-42 0 -71 -15t-29 -40q0 -48 78 -64l73 -15q94 -19 143.5 -53t49.5 -104q0 -80 -66 -125.5t-164 -45.5q-96 0 -159 46.5t-78 120.5l111 23q18 -100 130 -100q50 0 80 18t30 49q0 52 -96 72l-81 17q-77 16 -120 51.5t-43 103.5t63.5 110t156.5 42
q80 0 142 -39t82 -108zM219 -36h101v-102l-44 -89h-60l39 96h-36v95z" />
    <glyph glyph-name="uni021A" unicode="&#x21a;" horiz-adv-x="603" 
d="M238 619h-228v106h583v-106h-228v-619h-127v619zM250 -36h101v-102l-44 -89h-60l39 96h-36v95z" />
    <glyph glyph-name="uni021B" unicode="&#x21b;" horiz-adv-x="350" 
d="M208 144q0 -33 13.5 -46t40.5 -13q20 0 43 4l8 -89q-36 -6 -71 -6q-77 0 -115 34.5t-38 109.5v304h-80v86h80v142h119v-142h108v-86h-108v-298zM113 -36h101v-102l-44 -89h-60l39 96h-36v95z" />
    <glyph glyph-name="uni0232" unicode="&#x232;" horiz-adv-x="653" 
d="M172 775v87h308v-87h-308zM145 725l180 -324l185 324h143l-267 -445v-280h-127v282l-259 443h145z" />
    <glyph glyph-name="uni0233" unicode="&#x233;" horiz-adv-x="506" 
d="M99 628v88h308v-88h-308zM126 -175l68 189l-189 514h130l122 -376l122 376h122l-253 -703h-122z" />
    <glyph glyph-name="uni0237" unicode="&#x237;" horiz-adv-x="263" 
d="M72 538h119v-546q0 -100 -32 -133.5t-124 -33.5h-40v92h22q36 0 45.5 13t9.5 57v551z" />
    <glyph glyph-name="uni0259" unicode="&#x259;" horiz-adv-x="589" 
d="M553 264q0 -122 -72.5 -199.5t-188.5 -77.5q-124 0 -193.5 88.5t-61.5 226.5h395q-3 65 -43.5 107t-99.5 42q-97 0 -129 -75l-113 11q24 70 83 116.5t154 46.5q127 0 198 -82t71 -204zM432 215h-274q2 -62 40 -98.5t94 -36.5q54 0 95 35t45 100z" />
    <glyph glyph-name="circumflex" unicode="&#x2c6;" horiz-adv-x="422" 
d="M400 609h-110l-79 48l-80 -48h-109l143 116h95z" />
    <glyph glyph-name="caron" unicode="&#x2c7;" horiz-adv-x="422" 
d="M22 725h110l78 -48l81 48h109l-143 -116h-95z" />
    <glyph glyph-name="breve" unicode="&#x2d8;" horiz-adv-x="374" 
d="M186 604q-154 0 -164 121h87q6 -55 78 -55q73 0 79 55h86q-12 -121 -166 -121z" />
    <glyph glyph-name="dotaccent" unicode="&#x2d9;" horiz-adv-x="149" 
d="M127 725v-111h-105v111h105z" />
    <glyph glyph-name="ring" unicode="&#x2da;" horiz-adv-x="230" 
d="M208 692q0 -38 -27 -62.5t-66 -24.5t-66 24.5t-27 62.5q0 37 27 62t66 25t66 -25t27 -62zM74 692q0 -18 12 -29.5t29 -11.5t29.5 11.5t12.5 29.5t-12.5 30t-29.5 12t-29 -12t-12 -30z" />
    <glyph glyph-name="ogonek" unicode="&#x2db;" horiz-adv-x="237" 
d="M215 0q-45 -22 -66.5 -39t-21.5 -38q0 -37 46 -37q11 0 42 9v-73q-38 -10 -64 -10q-55 0 -92 23t-37 69q0 58 73 96h120z" />
    <glyph glyph-name="tilde" unicode="&#x2dc;" horiz-adv-x="436" 
d="M329 735h85q-11 -70 -48 -98.5t-81 -28.5q-34 0 -73 22.5t-57 22.5q-40 0 -48 -44h-85q11 69 48 98t81 29q34 0 71.5 -22.5t56.5 -22.5q41 0 50 44z" />
    <glyph glyph-name="hungarumlaut" unicode="&#x2dd;" horiz-adv-x="457" 
d="M115 609h-93l93 116h140zM293 609h-91l92 116h141z" />
    <glyph glyph-name="uni0326" unicode="&#x326;" 
d="M-123 -36h101v-102l-44 -89h-60l39 96h-36v95z" />
    <glyph glyph-name="uni032C" unicode="&#x32c;" 
d="M-400 0h113l75 -59l78 59h112l-154 -138h-73z" />
    <glyph glyph-name="Delta" unicode="&#x394;" horiz-adv-x="705" 
d="M353 734l349 -734h-699zM353 495l-188 -392h375z" />
    <glyph glyph-name="Omega" unicode="&#x3a9;" horiz-adv-x="805" 
d="M757 424q0 -93 -54.5 -168t-140.5 -105v-44h194v-107h-306v216q85 13 137 72.5t52 138.5q0 94 -65.5 154.5t-170.5 60.5q-106 0 -171.5 -60.5t-65.5 -154.5q0 -79 52 -138.5t137 -72.5v-216h-306v107h194v44q-87 29 -141 104.5t-54 168.5q0 145 104.5 229.5t250.5 84.5
q145 0 249.5 -84.5t104.5 -229.5z" />
    <glyph glyph-name="mu" unicode="&#x3bc;" horiz-adv-x="592" 
d="M71 -9v547h111v-294q0 -161 110 -161q59 0 89 46t30 122v287h111v-538h-111v65q-43 -74 -117 -74q-75 0 -112 63v-56q0 -97 -13 -173h-110q12 63 12 166z" />
    <glyph glyph-name="pi" unicode="&#x3c0;" horiz-adv-x="674" 
d="M118 0v431h-81v107h596v-107h-81v-269q0 -41 8.5 -53t43.5 -12h32v-97h-49q-87 0 -116.5 29t-29.5 122v280h-211v-431h-112z" />
    <glyph glyph-name="uni0600" unicode="&#x600;" horiz-adv-x="1004" 
d="M718 -92q111 8 266 34l-23 -114q-230 -43 -500 -43h-431l-30 115h461h44q-24 27 -24 65q0 57 60.5 109.5t251.5 164.5l50 -95q-142 -77 -197.5 -117.5t-55.5 -67.5q0 -60 128 -51z" />
    <glyph glyph-name="uni0601" unicode="&#x601;" horiz-adv-x="2426" 
d="M2426 -108q-582 -147 -1118 -147q-356 0 -625 72q-55 -72 -145 -72q-63 0 -103 28t-77 91q-5 8 -15 25.5t-14.5 25.5t-13.5 20t-15.5 17.5t-16 10t-19.5 4.5q-39 0 -68.5 -34t-70.5 -127l-95 45q55 127 107.5 179t125.5 52q18 0 34 -4t28 -8.5t26 -16.5t20.5 -17.5
t19.5 -23t16.5 -22.5t16 -26t14.5 -24q18 -29 27.5 -41.5t30.5 -25.5t47 -13q70 0 87 64q12 45 19 125h102q-9 -82 -24 -138q234 -51 588 -51q543 0 1086 131z" />
    <glyph glyph-name="uni0602" unicode="&#x602;" horiz-adv-x="879" 
d="M515 -99l364 -1l-23 -115h-488q-166 0 -242 61t-76 181q0 115 69 179.5t164 64.5q94 0 163 -64.5t69 -179.5v-126zM353 -98h52v116q0 60 -34.5 98.5t-87.5 38.5t-88 -35t-35 -86q0 -67 44.5 -99t148.5 -33z" />
    <glyph glyph-name="uni0603" unicode="&#x603;" horiz-adv-x="1542" 
d="M1287 313q92 0 153.5 -62t61.5 -155q0 -139 -113 -225t-297 -86q-209 0 -381 72q-69 -72 -170 -72h-511l-30 115h541q51 0 79.5 17.5t41.5 56.5q15 49 24 141h99q-9 -94 -26 -164q23 -8 46 -15q178 222 280 299.5t202 77.5zM1080 -100q139 0 225 50t86 129q0 51 -35 84.5
t-88 33.5q-70 0 -143 -60.5t-210 -224.5q81 -12 165 -12z" />
    <glyph glyph-name="uni0609" unicode="&#x609;" horiz-adv-x="710" 
d="M58 0l282 725h114l-282 -725h-114zM128 686l89 -88l-88 -88l-89 88zM373 197l89 -88l-88 -88l-89 88zM581 197l89 -88l-88 -88l-89 88z" />
    <glyph glyph-name="uni060B" unicode="&#x60b;" horiz-adv-x="1091" 
d="M922 632l-88 -88l-89 88l88 88zM833 495q93 0 155.5 -66t62.5 -164q0 -120 -71 -192.5t-188 -72.5h-277v-275h-110v275h-77q-128 0 -203 63.5t-75 178.5t69 179.5t164 64.5q94 0 163 -64.5t69 -179.5v-127h153q-14 22 -23 34q-42 62 -42 130q0 91 66 153.5t164 62.5z
M795 115q67 0 106 37t39 103q0 54 -32 89t-81 35q-51 0 -82.5 -34t-31.5 -83q0 -40 33 -90q27 -42 33 -57h16zM353 115h52v118q0 60 -34.5 98.5t-87.5 38.5t-88 -35t-35 -86q0 -67 45 -100.5t148 -33.5z" />
    <glyph glyph-name="uni060C" unicode="&#x60c;" horiz-adv-x="250" 
d="M193 0h-136v146l70 148h71l-66 -158h61v-136z" />
    <glyph glyph-name="uni060D" unicode="&#x60d;" horiz-adv-x="391" 
d="M0 0l282 725h114l-282 -725h-114z" />
    <glyph glyph-name="uni060E" unicode="&#x60e;" horiz-adv-x="959" 
d="M916 154l14 -109q-331 -45 -562 -45q-166 0 -242 61t-76 181q0 115 69 179.5t164 64.5q94 0 163 -64.5t69 -179.5v-124q166 6 401 36zM353 115h52v118q0 60 -34.5 98.5t-87.5 38.5t-88 -35t-35 -86q0 -67 45 -100.5t148 -33.5z" />
    <glyph glyph-name="uni060F" unicode="&#x60f;" horiz-adv-x="600" 
d="M433 46q77 0 128 -42t51 -105q0 -80 -68.5 -127t-187.5 -47q-142 0 -228 67q-13 -12 -39.5 -35.5t-34.5 -30.5l-54 59q31 29 74 66q-19 36 -19 73q0 145 156 218q-52 29 -84.5 78.5t-32.5 100.5q0 93 65.5 155t164.5 62q40 0 75.5 -8.5t115.5 -33.5l-32 -100
q-90 28 -146 28q-60 0 -96.5 -29.5t-36.5 -76.5q0 -60 54.5 -96t124.5 -25q73 15 154 23l-24 -117q-190 -18 -268.5 -59.5t-78.5 -103.5q0 -8 1 -12q82 63 144 90.5t122 27.5zM357 -160q70 0 107.5 17.5t37.5 47.5q0 22 -21 36t-52 15q-50 1 -98 -19.5t-115 -71.5
q46 -25 141 -25z" />
    <glyph glyph-name="uni0615" unicode="&#x615;" 
d="M79 678q46 0 73.5 -28t27.5 -68q0 -49 -49.5 -78t-132.5 -29h-131l-36 65h66v165h60v-103q66 76 122 76zM-2 540q107 0 107 42q0 14 -11 22.5t-28 8.5q-23 0 -45 -15t-67 -58h44z" />
    <glyph glyph-name="uni061B" unicode="&#x61b;" horiz-adv-x="250" 
d="M193 349h-136v146l70 148h71l-66 -158h61v-136zM57 0v136h136v-136h-136z" />
    <glyph glyph-name="uni061F" unicode="&#x61f;" horiz-adv-x="475" 
d="M239 725q132 0 231 -123l-78 -70q-41 42 -75.5 59.5t-78.5 18.5q-45 1 -76 -23t-31 -65q0 -27 20 -49t81 -62t87 -77.5t26 -102.5l-109 -34h-10v31q0 46 -19 69t-72 55q-55 34 -85 80t-30 96q0 89 61 143t158 54zM354 0h-136v136h136v-136z" />
    <glyph glyph-name="uni0621" unicode="&#x621;" horiz-adv-x="497" 
d="M327 115h150l-28 -115h-248q-82 0 -181 -29v110q71 23 106 29q-48 44 -48 120q0 80 59 135t137 55q61 0 167 -38l-32 -100q-72 24 -118 24q-42 0 -72.5 -25t-30.5 -62q0 -15 4.5 -29.5t17.5 -33t43 -30t74 -11.5z" />
    <glyph glyph-name="uni0622" unicode="&#x622;" horiz-adv-x="270" 
d="M67 759q22 0 64.5 -18.5t65.5 -18.5q46 0 80 26l-1 -76q-33 -25 -77 -25q-23 0 -62 18.5t-58 18.5q-45 0 -51 -39h-60q0 52 27 83t72 31zM195 600v-600h-110v600h110z" />
    <glyph glyph-name="uni0623" unicode="&#x623;" horiz-adv-x="270" 
d="M158 725h109l-20 -70h-167q-34 0 -75 -12v68q39 14 68 14q-24 23 -24 57q0 39 28 65.5t68 26.5q42 0 84 -20v-66q-42 16 -66 16q-21 0 -36 -12t-15 -31q0 -16 13 -26t33 -10zM85 0v600h110v-600h-110z" />
    <glyph glyph-name="uni0624" unicode="&#x624;" horiz-adv-x="540" 
d="M368 559h-132q-48 0 -106 -17v87q38 13 56 16q-22 25 -22 57q0 44 31 74t86 30q31 0 74 -21v-84q-45 14 -72 14q-19 0 -32 -9t-13 -23q0 -34 63 -34h94zM481 257q6 -102 6 -215q0 -257 -363 -257v105q126 0 192 39.5t66 103.5v1q-65 -34 -127 -34q-97 0 -156 64t-59 169
q0 108 66 180t165 72q92 0 148 -59.5t62 -168.5zM268 115q64 0 112 19q-1 15 -3 38.5t-3 41.5t-2 34q-9 122 -109 122q-48 0 -80.5 -38.5t-32.5 -94.5q0 -122 118 -122z" />
    <glyph glyph-name="uni0625" unicode="&#x625;" horiz-adv-x="270" 
d="M195 725v-725h-110v725h110zM124 -195h109l-20 -70h-167q-34 0 -75 -12v68q39 14 68 14q-24 23 -24 57q0 39 28 65.5t68 26.5q42 0 84 -20v-66q-42 16 -66 16q-21 0 -36 -12t-15 -31q0 -16 13 -26t33 -10z" />
    <glyph glyph-name="uni0626" unicode="&#x626;" horiz-adv-x="694" 
d="M248 371h-132q-48 0 -106 -17v87q38 13 56 16q-22 25 -22 57q0 44 31 74t86 30q31 0 74 -21v-84q-45 14 -72 14q-19 0 -32 -9t-13 -23q0 -34 63 -34h94zM548 137q64 -41 85 -77.5t21 -78.5q0 -85 -80.5 -140.5t-226.5 -55.5q-163 0 -240 69t-77 210q0 89 44 221l96 -26
q-35 -100 -35 -180q0 -96 56 -138t189 -42q77 0 125 21.5t48 52.5q0 19 -13 33t-64 46l-72 45q-58 36 -85.5 79.5t-27.5 103.5q0 93 66.5 154t172.5 61q58 0 118 -25v-115q-72 25 -134 25q-56 0 -89.5 -24.5t-33.5 -64.5q0 -30 18.5 -53.5t62.5 -52.5z" />
    <glyph glyph-name="uni0627" unicode="&#x627;" horiz-adv-x="270" 
d="M195 725v-725h-110v725h110z" />
    <glyph glyph-name="uni0628" unicode="&#x628;" horiz-adv-x="821" 
d="M741 485q30 -205 30 -294q0 -87 -55.5 -139t-158.5 -52h-1h-2h-256q-131 0 -199.5 62t-68.5 181q0 68 17 145l103 -17q-12 -67 -12 -108q0 -82 40.5 -115t141.5 -33h234h2h1q58 0 81 20t23 64q0 81 -30 286h110zM327 -144l88 88l89 -88l-88 -88z" />
    <glyph glyph-name="uni0629" unicode="&#x629;" horiz-adv-x="511" 
d="M302 672l-75 -74l-89 88l88 88l76 -74l75 74l89 -88l-88 -88zM375 538q10 -27 24.5 -65.5t21 -56.5t17 -46t14.5 -41t10.5 -32.5t9 -29.5t5 -23.5t3.5 -23.5t1 -21q0 -89 -67 -150.5t-166 -61.5q-95 0 -156.5 54.5t-61.5 137.5q0 95 58 167t186 142l-19 50h120zM251 102
q54 0 87 28.5t33 73.5q0 25 -11.5 60.5t-50.5 135.5q-171 -82 -171 -197q0 -48 30 -74.5t83 -26.5z" />
    <glyph glyph-name="uni062A" unicode="&#x62a;" horiz-adv-x="821" 
d="M408 514l-75 -74l-89 88l88 88l76 -74l75 74l89 -88l-88 -88zM741 485q30 -205 30 -294q0 -87 -55.5 -139t-158.5 -52h-1h-2h-256q-131 0 -199.5 62t-68.5 181q0 68 17 145l103 -17q-12 -67 -12 -108q0 -82 40.5 -115t141.5 -33h234h2h1q58 0 81 20t23 64q0 81 -30 286
h110z" />
    <glyph glyph-name="uni062B" unicode="&#x62b;" horiz-adv-x="821" 
d="M477 656l-70 -70l-71 70l70 71zM407 518l-80 -79l-89 88l88 89l81 -80l80 80l89 -89l-88 -88zM741 485q30 -205 30 -294q0 -87 -55.5 -139t-158.5 -52h-1h-2h-256q-131 0 -199.5 62t-68.5 181q0 68 17 145l103 -17q-12 -67 -12 -108q0 -82 40.5 -115t141.5 -33h234h2h1
q58 0 81 20t23 64q0 81 -30 286h110z" />
    <glyph glyph-name="uni062C" unicode="&#x62c;" horiz-adv-x="631" 
d="M611 322l-30 -110q-58 0 -130.5 -15t-143.5 -42t-119 -74t-48 -102q0 -67 48.5 -103t141.5 -36q84 0 198 33l32 -100q-144 -48 -245 -48q-136 0 -210.5 62.5t-74.5 175.5q0 73 35.5 130.5t97.5 95t130.5 60.5t150.5 37q-35 19 -88 58t-92 59t-80 20t-103 -23l-32 100
q73 38 140 38q51 0 105.5 -28.5t97 -64t102.5 -73t117 -50.5zM359 -82l-89 88l88 88l89 -88z" />
    <glyph glyph-name="uni062D" unicode="&#x62d;" horiz-adv-x="631" 
d="M581 212q-58 0 -130.5 -15t-143.5 -42t-119 -74t-48 -102q0 -67 48.5 -103t141.5 -36q84 0 198 33l32 -100q-144 -48 -245 -48q-136 0 -210.5 62.5t-74.5 175.5q0 73 35.5 130.5t97.5 95t130.5 60.5t150.5 37q-35 19 -88 58t-92 59t-80 20t-103 -23l-32 100q73 38 140 38
q51 0 105.5 -28.5t97 -64t102.5 -73t117 -50.5z" />
    <glyph glyph-name="uni062E" unicode="&#x62e;" horiz-adv-x="631" 
d="M514 626l-88 -88l-89 88l88 88zM581 212q-58 0 -130.5 -15t-143.5 -42t-119 -74t-48 -102q0 -67 48.5 -103t141.5 -36q84 0 198 33l32 -100q-144 -48 -245 -48q-136 0 -210.5 62.5t-74.5 175.5q0 73 35.5 130.5t97.5 95t130.5 60.5t150.5 37q-35 19 -88 58t-92 59t-80 20
t-103 -23l-32 100q73 38 140 38q51 0 105.5 -28.5t97 -64t102.5 -73t117 -50.5z" />
    <glyph glyph-name="uni062F" unicode="&#x62f;" horiz-adv-x="463" 
d="M315 485q49 -95 78.5 -183t29.5 -140q0 -78 -49.5 -120t-146.5 -42q-91 0 -217 33l23 108q101 -26 174 -26q58 0 83 13.5t25 46.5q0 30 -31.5 118.5t-81.5 191.5h113z" />
    <glyph glyph-name="uni0630" unicode="&#x630;" horiz-adv-x="463" 
d="M255 720l89 -88l-88 -88l-89 88zM315 485q49 -95 78.5 -183t29.5 -140q0 -78 -49.5 -120t-146.5 -42q-91 0 -217 33l23 108q101 -26 174 -26q58 0 83 13.5t25 46.5q0 30 -31.5 118.5t-81.5 191.5h113z" />
    <glyph glyph-name="uni0631" unicode="&#x631;" horiz-adv-x="299" 
d="M218 440q31 -195 31 -418q0 -112 -69.5 -174.5t-189.5 -62.5v105q72 0 112.5 35.5t40.5 104.5q0 135 -35 410h110z" />
    <glyph glyph-name="uni0632" unicode="&#x632;" horiz-adv-x="299" 
d="M153 681l89 -88l-88 -88l-89 88zM218 440q31 -195 31 -418q0 -112 -69.5 -174.5t-189.5 -62.5v105q72 0 112.5 35.5t40.5 104.5q0 135 -35 410h110z" />
    <glyph glyph-name="uni0633" unicode="&#x633;" horiz-adv-x="1298" 
d="M1218 485q30 -206 30 -298q0 -80 -58.5 -133.5t-145.5 -53.5q-80 0 -172 58q-51 -58 -144 -58q-53 0 -121 39q-16 -116 -90.5 -185t-194.5 -69q-282 0 -282 279q0 89 44 221l96 -26q-35 -100 -35 -180q0 -179 185 -179q175 0 175 199q0 17 -0.5 35t-3 42.5t-4 39t-6.5 50
t-7 49.5t-9.5 61t-9.5 64h110q31 -203 35 -294q54 -31 118 -31q67 0 90 50q23 51 23 205h102q0 -146 -26 -228q61 -27 117 -27q104 0 104 80q0 86 -30 290h110z" />
    <glyph glyph-name="uni0634" unicode="&#x634;" horiz-adv-x="1298" 
d="M956 681l-70 -70l-71 70l70 71zM886 543l-80 -79l-89 88l88 89l81 -80l80 80l89 -89l-88 -88zM1218 485q30 -206 30 -298q0 -80 -58.5 -133.5t-145.5 -53.5q-80 0 -172 58q-51 -58 -144 -58q-53 0 -121 39q-16 -116 -90.5 -185t-194.5 -69q-282 0 -282 279q0 89 44 221
l96 -26q-35 -100 -35 -180q0 -179 185 -179q175 0 175 199q0 17 -0.5 35t-3 42.5t-4 39t-6.5 50t-7 49.5t-9.5 61t-9.5 64h110q31 -203 35 -294q54 -31 118 -31q67 0 90 50q23 51 23 205h102q0 -146 -26 -228q61 -27 117 -27q104 0 104 80q0 86 -30 290h110z" />
    <glyph glyph-name="uni0635" unicode="&#x635;" horiz-adv-x="1293" 
d="M1038 528q92 0 153.5 -62t61.5 -155q0 -139 -113 -225t-297 -86q-84 0 -238 29q-18 -112 -92 -178t-191 -66q-282 0 -282 279q0 89 44 221l96 -26q-35 -100 -35 -180q0 -179 185 -179q175 0 175 199q0 17 -0.5 35t-3 42.5t-4 39t-6.5 50t-7 49.5t-9.5 61t-9.5 64h110
q17 -111 27 -195q148 155 244.5 219t191.5 64zM831 115q139 0 225 50t86 129q0 51 -35 84.5t-88 33.5q-68 0 -155.5 -60.5t-250.5 -217.5q101 -19 218 -19z" />
    <glyph glyph-name="uni0636" unicode="&#x636;" horiz-adv-x="1293" 
d="M863 632l-88 -88l-89 88l88 88zM1038 528q92 0 153.5 -62t61.5 -155q0 -139 -113 -225t-297 -86q-84 0 -238 29q-18 -112 -92 -178t-191 -66q-282 0 -282 279q0 89 44 221l96 -26q-35 -100 -35 -180q0 -179 185 -179q175 0 175 199q0 17 -0.5 35t-3 42.5t-4 39t-6.5 50
t-7 49.5t-9.5 61t-9.5 64h110q17 -111 27 -195q148 155 244.5 219t191.5 64zM831 115q139 0 225 50t86 129q0 51 -35 84.5t-88 33.5q-68 0 -155.5 -60.5t-250.5 -217.5q101 -19 218 -19z" />
    <glyph glyph-name="uni0637" unicode="&#x637;" horiz-adv-x="865" 
d="M610 528q92 0 153.5 -62t61.5 -155q0 -141 -116 -226t-324 -85q-167 0 -375 45l23 108q56 -11 93 -17q12 16 40 48v541h110v-240q0 -81 -25 -201q126 142 201.5 193t157.5 51zM400 115q142 0 228 50t86 129q0 51 -35 84.5t-88 33.5q-65 0 -126.5 -52t-208.5 -216
q-12 -15 -19 -22q73 -7 163 -7z" />
    <glyph glyph-name="uni0638" unicode="&#x638;" horiz-adv-x="865" 
d="M610 528q92 0 153.5 -62t61.5 -155q0 -141 -116 -226t-324 -85q-167 0 -375 45l23 108q56 -11 93 -17q12 16 40 48v541h110v-240q0 -81 -25 -201q126 142 201.5 193t157.5 51zM525 632l-88 -88l-89 88l88 88zM400 115q142 0 228 50t86 129q0 51 -35 84.5t-88 33.5
q-65 0 -126.5 -52t-208.5 -216q-12 -15 -19 -22q73 -7 163 -7z" />
    <glyph glyph-name="uni0639" unicode="&#x639;" horiz-adv-x="594" 
d="M548 -127l32 -100q-144 -48 -245 -48q-138 0 -211.5 53.5t-73.5 151.5q0 140 159 214q-51 29 -83 78t-32 99q0 93 65.5 155t164.5 62q40 0 75.5 -8.5t115.5 -33.5l-32 -100q-90 28 -146 28q-60 0 -96.5 -29.5t-36.5 -76.5q0 -58 52.5 -94t121.5 -28q72 15 159 24
l-24 -117q-191 -19 -271.5 -60t-80.5 -103q0 -100 177 -100q96 0 210 33z" />
    <glyph glyph-name="uni063A" unicode="&#x63a;" horiz-adv-x="594" 
d="M424 678l-88 -88l-89 88l88 88zM548 -127l32 -100q-144 -48 -245 -48q-138 0 -211.5 53.5t-73.5 151.5q0 140 159 214q-51 29 -83 78t-32 99q0 93 65.5 155t164.5 62q40 0 75.5 -8.5t115.5 -33.5l-32 -100q-90 28 -146 28q-60 0 -96.5 -29.5t-36.5 -76.5q0 -58 52.5 -94
t121.5 -28q72 15 159 24l-24 -117q-191 -19 -271.5 -60t-80.5 -103q0 -100 177 -100q96 0 210 33z" />
    <glyph glyph-name="uni0640" unicode="&#x640;" horiz-adv-x="194" 
d="M194 115q10 0 10 -10v-94q0 -11 -10 -11h-194q-10 0 -10 11v94q0 10 10 10h194z" />
    <glyph glyph-name="uni0641" unicode="&#x641;" horiz-adv-x="941" 
d="M750 632l-88 -88l-89 88l88 88zM683 495q93 0 155.5 -66t62.5 -164q0 -120 -71 -192.5t-188 -72.5h-344q-131 0 -199.5 62t-68.5 181q0 68 17 145l103 -17q-12 -67 -12 -108q0 -82 40.5 -115t141.5 -33h198q-14 22 -23 34q-42 62 -42 130q0 91 66 153.5t164 62.5z
M645 115q67 0 106 37t39 103q0 54 -32 89t-81 35q-51 0 -82.5 -34t-31.5 -83q0 -40 33 -90q27 -42 33 -57h16z" />
    <glyph glyph-name="uni0642" unicode="&#x642;" horiz-adv-x="760" 
d="M487 622l-75 -74l-89 88l88 88l76 -74l75 74l89 -88l-88 -88zM704 257q6 -102 6 -209q0 -123 -91 -193t-262 -70q-170 0 -248.5 68.5t-78.5 210.5q0 89 44 221l96 -26q-35 -100 -35 -180q0 -96 56 -138.5t189 -42.5q110 0 167.5 38.5t57.5 96.5v1q-65 -34 -127 -34
q-97 0 -156 64t-59 169q0 108 66 180t165 72q92 0 148 -59.5t62 -168.5zM491 115q64 0 112 19q-1 15 -3 38.5t-3 41.5t-2 34q-9 122 -109 122q-48 0 -80.5 -38.5t-32.5 -94.5q0 -122 118 -122z" />
    <glyph glyph-name="uni0643" unicode="&#x643;" horiz-adv-x="843" 
d="M653 725h110v-534q0 -85 -54 -137.5t-154 -53.5h-1h-256q-131 0 -199.5 62t-68.5 181q0 68 17 145l103 -17q-12 -67 -12 -108q0 -82 40.5 -115t141.5 -33h229q58 0 81 20t23 64v526zM516 343h-132q-48 0 -106 -17v87q38 13 56 16q-22 25 -22 57q0 44 31 74t86 30
q31 0 74 -21v-84q-45 14 -72 14q-19 0 -32 -9t-13 -23q0 -34 63 -34h94z" />
    <glyph glyph-name="uni0644" unicode="&#x644;" horiz-adv-x="695" 
d="M615 725v-626q0 -139 -78.5 -226.5t-214.5 -87.5q-282 0 -282 279q0 89 44 221l96 -26q-35 -100 -35 -180q0 -179 185 -179q175 0 175 199v626h110z" />
    <glyph glyph-name="uni0645" unicode="&#x645;" horiz-adv-x="543" 
d="M245 495q68 0 135 -62.5t153 -219.5l-55 -118q-84 3 -142 -0.5t-104.5 -15.5t-69 -38t-22.5 -66q0 -45 30 -250h-110q-30 205 -30 258q0 58 25.5 101t65.5 67t94.5 37.5t105 16.5t105.5 0q-65 106 -107.5 140.5t-81.5 34.5q-26 0 -52 -14.5t-71 -51.5l-57 82
q67 57 107 78t81 21z" />
    <glyph glyph-name="uni0646" unicode="&#x646;" horiz-adv-x="661" 
d="M297 558l89 -88l-88 -88l-89 88zM575 440q36 -238 36 -341q0 -140 -76.5 -227t-212.5 -87q-282 0 -282 279q0 89 44 221l96 -26q-35 -100 -35 -180q0 -179 185 -179q175 0 175 199q0 17 -0.5 35t-3 42.5t-4 39t-6.5 50t-7 49.5t-9.5 61t-9.5 64h110z" />
    </font>
</defs>
</svg>
