<?xml version="1.0" standalone="no"?>
<!DOCTYPE svg PUBLIC "-//W3C//DTD SVG 1.1//EN" "http://www.w3.org/Graphics/SVG/1.1/DTD/svg11.dtd" >
<svg xmlns="http://www.w3.org/2000/svg" xmlns:xlink="http://www.w3.org/1999/xlink" version="1.1">
<metadata>
Created by FontForge 20201107 at Thu May  2 15:14:35 2024
 By 
Copyright (c) 2015 by 29Letters / 29LT. All rights reserved.
</metadata>
<defs>
<font id="29LTKaff-Regular" horiz-adv-x="0" >
  <font-face 
    font-family="29LT Kaff"
    font-weight="400"
    font-stretch="normal"
    units-per-em="2048"
    panose-1="0 0 5 0 0 0 0 0 0 0"
    ascent="1485"
    descent="-563"
    bbox="-471 -1331 4964 2296"
    underline-thickness="122"
    underline-position="-480"
    unicode-range="U+0600-FEFC"
  />
<missing-glyph horiz-adv-x="1228" 
 />
    <glyph glyph-name="uniFC43" unicode="&#xfedf;&#xfef0;" horiz-adv-x="1771" arabic-form="isolated" 
d="M1597 1485v-1094q0 -128 -53 -220q-52 -90 -158 -134q-88 -235 -273 -356t-451 -121q-278 0 -429 142t-151 415q0 196 92 467l148 -39q-76 -207 -76 -398q0 -206 112 -305q111 -98 342 -98q165 0 297 65q131 65 207 191h-24h-308l31 184h277q129 0 187 52q56 50 56 161
v1088h174z" />
    <glyph glyph-name="uniFC86" unicode="&#xfee0;&#xfef0;" horiz-adv-x="1892" arabic-form="final" 
d="M1911 164v-141q0 -11 -6 -17t-15 -6q-231 0 -338 131q-52 -48 -83 -69q-43 -29 -89 -44q-92 -225 -274 -342q-181 -116 -444 -116q-278 0 -429 142t-151 415q0 196 92 467l148 -39q-76 -207 -76 -398q0 -206 112 -305q111 -98 342 -98q166 0 298 63t206 193h-270l31 184
h276q148 0 246 82q-14 52 -14 125v1094h174v-1088q0 -110 57 -161q58 -52 186 -52q21 0 21 -20z" />
    <glyph glyph-name="uniFEF5" unicode="&#xfedf;&#xfe82;" horiz-adv-x="1206" arabic-form="isolated" 
d="M1091 479q44 -80 44 -162q0 -136 -94 -227q-93 -90 -277 -90h-643l-80 184q232 135 378 254q146 118 224 250l-500 447l115 133l457 -412q33 106 33 246v485h174v-485q0 -199 -72 -367l102 -92q96 -85 139 -164zM919 220q42 36 42 93q0 47 -27 93q-28 48 -78 92l-94 84
q-151 -219 -469 -398h510q74 0 116 36zM209 1553q29 -9 72 -27q78 -39 129 -39q38 0 84 14q49 15 79 39l-2 -135q-67 -51 -157 -51q-32 0 -59 9q-28 9 -68 30q-36 17 -62 27q-27 10 -51 10q-41 0 -68 -21q-26 -20 -32 -59h-113q0 91 50 152t139 61q27 0 59 -10z" />
    <glyph glyph-name="uniFEF6" unicode="&#xfee0;&#xfe82;" horiz-adv-x="1378" arabic-form="final" 
d="M1399 164v-141q0 -11 -6 -17t-15 -6q-213 0 -321 113q-115 -53 -249 -83q-136 -30 -263 -30q-134 0 -257 17q-128 18 -237 53v174q196 -55 473 -60q-5 99 -14 164q-11 75 -59 280q-66 286 -68 294l-72 307h185q5 -20 17.5 -79t18.5 -83q91 -413 100 -454q37 -176 44 -244
q6 -45 6 -99q0 -44 -2 -82q163 12 303 52q-22 70 -22 151v1094h174v-1088q0 -110 57 -161q58 -52 186 -52q21 0 21 -20zM356 1560q18 -6 72 -28q78 -39 129 -39q38 0 84 14q50 15 80 39l-2 -135q-67 -51 -158 -51q-31 0 -58 9q-31 10 -69 30q-39 19 -61 27q-27 10 -51 10
q-41 0 -68 -21t-33 -59h-112q0 91 50 152t138 61q31 0 59 -9z" />
    <glyph glyph-name="uniFEF7" unicode="&#xfedf;&#xfe84;" horiz-adv-x="1206" arabic-form="isolated" 
d="M1091 479q44 -80 44 -162q0 -136 -94 -227q-93 -90 -277 -90h-643l-80 184q232 135 378 254q146 118 224 250l-500 447l115 133l457 -412q33 106 33 246v485h174v-485q0 -199 -72 -367l102 -92q96 -85 139 -164zM919 220q42 36 42 93q0 47 -27 93q-28 48 -78 92l-94 84
q-151 -219 -469 -398h510q74 0 116 36zM522 1489l-37 -123h-331q-66 0 -154 -25v119q54 18 78 23q29 6 67 6q-49 49 -49 117q0 79 56 132q55 52 137 52q64 0 155 -41v-119q-79 31 -129 31q-43 0 -73 -25q-29 -24 -29 -63q0 -35 28 -60q27 -24 68 -24h213z" />
    <glyph glyph-name="uniFEF8" unicode="&#xfee0;&#xfe84;" horiz-adv-x="1378" arabic-form="final" 
d="M1399 164v-141q0 -11 -6 -17t-15 -6q-213 0 -321 113q-115 -53 -249 -83q-136 -30 -263 -30q-134 0 -257 17q-128 18 -237 53v174q196 -55 473 -60q-5 99 -14 164q-11 75 -59 280q-66 286 -68 294l-72 307h185q5 -20 17.5 -79t18.5 -83q91 -413 100 -454q37 -176 44 -244
q6 -45 6 -99q0 -44 -2 -82q163 12 303 52q-22 70 -22 151v1094h174v-1088q0 -110 57 -161q58 -52 186 -52q21 0 21 -20zM639 1483l-37 -123h-332q-66 0 -153 -25v119q54 18 78 23q28 6 67 6q-49 49 -49 116q0 81 55 133t137 52q65 0 156 -41v-119q-79 31 -129 31
q-44 0 -74 -25q-28 -24 -28 -63q0 -36 27 -60t69 -24h213z" />
    <glyph glyph-name="uniFEF9" unicode="&#xfedf;&#xfe88;" horiz-adv-x="1206" arabic-form="isolated" 
d="M1091 479q44 -80 44 -162q0 -136 -94 -227q-93 -90 -277 -90h-643l-80 184q232 135 378 254q146 118 224 250l-500 447l115 133l457 -412q33 106 33 246v485h174v-485q0 -199 -72 -367l102 -92q96 -85 139 -164zM919 220q42 36 42 93q0 47 -27 93q-28 48 -78 92l-94 84
q-151 -219 -469 -398h510q74 0 116 36zM872 -403l-36 -123h-332q-66 0 -154 -25v119q44 14 79 22q31 7 65 7q-50 50 -50 116q0 80 56 131q57 52 137 52q72 0 156 -39v-119q-87 31 -129 31q-44 0 -74 -25q-29 -24 -29 -63q0 -35 28 -60q27 -24 68 -24h215z" />
    <glyph glyph-name="uniFEFA" unicode="&#xfee0;&#xfe88;" horiz-adv-x="1378" arabic-form="final" 
d="M1399 164v-141q0 -11 -6 -17t-15 -6q-213 0 -321 113q-115 -53 -249 -83q-136 -30 -263 -30q-134 0 -257 17q-128 18 -237 53v174q196 -55 473 -60q-5 99 -14 164q-11 75 -59 280q-66 286 -68 294l-72 307h185q5 -20 17.5 -79t18.5 -83q91 -413 100 -454q37 -176 44 -244
q6 -45 6 -99q0 -44 -2 -82q163 12 303 52q-22 70 -22 151v1094h174v-1088q0 -110 57 -161q58 -52 186 -52q21 0 21 -20zM852 -403l-37 -123h-332q-65 0 -153 -25v119q44 14 79 22q32 7 64 7q-49 49 -49 116q0 80 55 131q57 52 137 52q72 0 156 -39v-119q-87 31 -129 31
q-44 0 -74 -25q-28 -24 -28 -63q0 -36 27 -60t69 -24h215z" />
    <glyph glyph-name="uniFEFB" unicode="&#xfedf;&#xfe8e;" horiz-adv-x="1206" arabic-form="isolated" 
d="M1091 479q44 -80 44 -162q0 -136 -94 -227q-93 -90 -277 -90h-643l-80 184q232 135 378 254q146 118 224 250l-500 447l115 133l457 -412q33 106 33 246v485h174v-485q0 -199 -72 -367l102 -92q96 -85 139 -164zM919 220q42 36 42 93q0 47 -27 93q-28 48 -78 92l-94 84
q-151 -219 -469 -398h510q74 0 116 36z" />
    <glyph glyph-name="uniFEFC" unicode="&#xfee0;&#xfe8e;" horiz-adv-x="1378" arabic-form="final" 
d="M1399 164v-141q0 -11 -6 -17t-15 -6q-213 0 -321 113q-115 -53 -249 -83q-136 -30 -263 -30q-134 0 -257 17q-128 18 -237 53v174q196 -55 473 -60q-5 99 -14 164q-11 75 -59 280q-66 286 -68 294l-72 307h185q5 -20 17.5 -79t18.5 -83q91 -413 100 -454q37 -176 44 -244
q6 -45 6 -99q0 -44 -2 -82q163 12 303 52q-22 70 -22 151v1094h174v-1088q0 -110 57 -161q58 -52 186 -52q21 0 21 -20z" />
    <glyph glyph-name="uniFEDF_uniFB51.rlig" unicode="&#xfedf;&#xfb51;" horiz-adv-x="1206" 
d="M1091 479q44 -80 44 -162q0 -136 -94 -227q-93 -90 -277 -90h-643l-80 184q232 135 378 254q146 118 224 250l-500 447l115 133l457 -412q33 106 33 246v485h174v-485q0 -199 -72 -367l102 -92q96 -85 139 -164zM919 220q42 36 42 93q0 47 -27 93q-28 48 -78 92l-94 84
q-151 -219 -469 -398h510q74 0 116 36zM554 1670q54 -53 54 -128q0 -96 -82 -150q-84 -55 -231 -55q-141 0 -295 62l37 110q26 -10 78 -24q99 129 168 183t139 54q79 0 132 -52zM423 1482q46 21 46 60q0 27 -20 43q-22 17 -50 17q-37 0 -80 -30q-42 -29 -110 -106
q45 -6 82 -6q83 0 132 22z" />
    <glyph glyph-name="uniFEE0_uniFB51.rlig" unicode="&#xfee0;&#xfb51;" horiz-adv-x="1378" 
d="M1399 164v-141q0 -11 -6 -17t-15 -6q-213 0 -321 113q-115 -53 -249 -83q-136 -30 -263 -30q-134 0 -257 17q-128 18 -237 53v174q196 -55 473 -60q-5 99 -14 164q-11 75 -59 280q-66 286 -68 294l-72 307h185q5 -20 17.5 -79t18.5 -83q91 -413 100 -454q37 -176 44 -244
q6 -45 6 -99q0 -44 -2 -82q163 12 303 52q-22 70 -22 151v1094h174v-1088q0 -110 57 -161q58 -52 186 -52q21 0 21 -20zM628 1656q54 -52 54 -128q0 -97 -82 -151t-231 -54q-143 0 -295 61l37 111q37 -14 77 -25q101 132 168 184q69 54 140 54q79 0 132 -52zM497 1467
q46 21 46 61q0 26 -21 43q-20 16 -49 16q-38 0 -80 -29t-110 -106q45 -6 82 -6q85 0 132 21z" />
    <glyph glyph-name="uni066E.init" unicode="&#x66e;" horiz-adv-x="530" 
d="M403 632q15 -137 15 -241q0 -184 -106 -288q-104 -103 -312 -103q-8 0 -14 6t-6 17v141q0 20 20 20q129 0 190 53q60 53 60 160q0 95 -14 208q-16 128 -54 388h174q29 -199 47 -361z" />
    <glyph glyph-name="uni066E.medi" unicode="&#x66e;" horiz-adv-x="614" 
d="M635 164v-141q0 -11 -6 -17t-15 -6q-87 0 -165 30q-79 30 -158 93q-50 -59 -126 -91t-165 -32q-8 0 -14 6t-6 17v141q0 20 20 20q152 0 207 111q29 62 41 164q12 105 12 299h160q0 -332 -58 -504q60 -39 118 -54q62 -16 134 -16q21 0 21 -20z" />
    <glyph glyph-name="uni066E.fina" unicode="&#x66e;" horiz-adv-x="1714" 
d="M1735 164v-141q0 -11 -6 -17t-15 -6q-88 0 -166 30q-77 30 -157 93q-91 -110 -254 -121l-9 -2h-526q-250 0 -385 120t-135 347q0 166 61 434l160 -27q-24 -117 -38 -212q-11 -76 -11 -158q0 -172 90 -246q91 -74 295 -74h461q152 0 207 111q29 62 41 164q12 105 12 299
h160q0 -332 -58 -504q60 -39 118 -54q62 -16 134 -16q21 0 21 -20z" />
    <glyph glyph-name="uni066F.fina" unicode="&#x66f;" horiz-adv-x="1556" 
d="M1577 164v-141q0 -11 -6 -17t-15 -6h-126q-29 -207 -211 -324q-181 -116 -496 -116q-305 0 -473 138t-168 419q0 196 92 467l148 -39q-76 -207 -76 -398q0 -205 130 -305t404 -100q199 0 324 71q126 72 156 187h-166q-248 0 -391 125q-142 124 -142 350q0 141 57 255
q56 112 160 178q103 65 234 65q176 0 284 -118q109 -120 121 -323l2 -43l13 -305h124q21 0 21 -20zM830 261q95 -77 276 -77h160q-5 84 -17 232l-6 96q-7 134 -72 206q-63 70 -170 70q-118 0 -192 -86t-74 -219q0 -145 95 -222z" />
    <glyph glyph-name="uni06A1.init" unicode="&#x6a1;" horiz-adv-x="1067" 
d="M758 933q98 -59 158 -166q59 -106 59 -237q0 -245 -146 -388q-145 -142 -399 -142h-430q-20 4 -20 23v141q0 20 20 20h227q-32 59 -55 95q-51 80 -71 144q-21 66 -21 142q0 116 59 213q60 99 164 157t229 58q126 0 226 -60zM703 269q96 87 96 239q0 133 -77 216t-202 83
q-113 0 -190 -77q-76 -76 -76 -187q0 -55 17 -103q17 -49 57 -116q47 -79 71 -140h50q160 0 254 85z" />
    <glyph glyph-name="uni06A1.medi" unicode="&#x6a1;" horiz-adv-x="1114" 
d="M1135 164v-141q0 -10 -7 -17q-6 -6 -14 -6q-136 0 -280 18q-135 17 -269 54q-235 -72 -565 -72q-20 4 -20 23v141q0 20 20 20q170 0 287 13q-87 67 -131 152q-45 87 -45 192q0 126 59 229t162 164q100 59 225 59t226 -58t160 -161q58 -101 58 -231q0 -101 -48 -189
t-136 -157q122 -13 297 -13q21 0 21 -20zM360 732q-75 -75 -75 -204q0 -107 67 -193q68 -87 189 -126q140 40 213 125q71 83 71 194q0 123 -76 202t-198 79q-114 0 -191 -77z" />
    <glyph glyph-name="uni06A1.fina" unicode="&#x6a1;" horiz-adv-x="1974" 
d="M1995 164v-141q0 -11 -6 -17t-15 -6q-136 0 -280 18q-135 17 -269 54q-225 -68 -544 -72h-2h-279q-250 0 -385 120t-135 347q0 140 41 328l162 -27q-31 -174 -31 -264q0 -172 90 -246q91 -74 295 -74h223q170 0 287 13q-87 67 -131 152q-45 87 -45 192q0 126 59 229
t162 164q100 59 225 59q126 0 227 -58q99 -57 159 -161q59 -103 59 -231q0 -101 -48 -189q-47 -87 -137 -157q122 -13 297 -13q21 0 21 -20zM1221 732q-76 -76 -76 -204q0 -107 67 -193q68 -87 189 -126q140 40 213 125q72 84 72 194q0 122 -77 202q-76 79 -198 79
q-113 0 -190 -77z" />
    <glyph glyph-name="uni06AA.init" unicode="&#x6aa;" horiz-adv-x="1640" 
d="M1412 761q136 -120 136 -327q0 -127 -57 -226q-57 -100 -160 -154q-102 -54 -235 -54h-1096q-8 0 -14 6t-6 17v141q0 20 20 20h1071q141 0 222 66t81 180q0 128 -82 197t-233 69h-909l-103 185l514 604l133 -107l-448 -497h803q227 0 363 -120z" />
    <glyph glyph-name="uni06AA.medi" unicode="&#x6aa;" horiz-adv-x="1742" 
d="M1763 164v-141q0 -11 -6 -17t-14 -6q-87 0 -165 29t-157 90q-63 -59 -144 -88q-85 -31 -181 -31h-1096q-8 0 -14 6t-6 17v141q0 20 20 20h1071q141 0 222 66t81 180q0 128 -82 197t-233 69h-909l-103 185l514 604l133 -107l-448 -497h803q227 0 363 -120t136 -327
q0 -102 -39 -192q57 -31 111 -44q58 -14 123 -14q20 0 20 -20z" />
    <glyph glyph-name="uni06AA.fina" unicode="&#x6aa;" horiz-adv-x="1943" 
d="M1964 164v-141q0 -11 -6 -17t-14 -6q-84 0 -163 28q-76 27 -155 89q-128 -117 -323 -117h-818q-134 0 -229 34q-99 36 -211 118l90 149q101 -64 177 -90q80 -27 173 -27h793q141 0 222 66t81 180q0 128 -82 197q-83 69 -233 69h-910l-102 185l514 604l133 -107l-448 -497
h802q227 0 364 -120q136 -120 136 -327q0 -104 -41 -194q55 -31 109 -43q60 -13 121 -13q20 0 20 -20z" />
    <glyph glyph-name="uni06C2.fina" unicode="&#x6c2;" horiz-adv-x="1269" 
d="M836 792q88 -87 184 -309q36 -82 71 -155q28 -57 72 -100q46 -44 107 -44q20 0 20 -20v-141q0 -11 -6 -17t-14 -6q-132 0 -223 88q-95 92 -173 295q-47 123 -80 184q-37 67 -79 98q-43 31 -107 31q-91 0 -157 -75q-67 -77 -156 -273l-76 -172l-147 70l75 172
q107 248 215 356q107 107 246 107q137 0 228 -89zM844 1180l-37 -123h-332q-65 0 -153 -25v119q55 18 77 23q29 6 68 6q-49 49 -49 116q0 80 55 132q56 53 137 53q65 0 156 -41v-119q-79 31 -129 31q-44 0 -74 -25q-28 -24 -28 -63q0 -36 27 -60t69 -24h213z" />
    <glyph glyph-name="uni06C3.fina" unicode="&#x6c3;" horiz-adv-x="1269" 
d="M836 792q88 -87 184 -309q36 -82 71 -155q28 -57 72 -100q46 -44 107 -44q20 0 20 -20v-141q0 -11 -6 -17t-14 -6q-132 0 -223 88q-95 92 -173 295q-47 123 -80 184q-37 67 -79 98q-43 31 -107 31q-91 0 -157 -75q-67 -77 -156 -273l-76 -172l-147 70l75 172
q107 248 215 356q107 107 246 107q137 0 228 -89zM758 1065l-154 149l-153 -149l-156 154l154 155l155 -151l154 151l155 -155z" />
    <glyph glyph-name="uniFB51" unicode="&#x671;" horiz-adv-x="591" arabic-form="final" 
d="M348 397q0 -109 58 -161t186 -52q20 0 20 -20v-141q0 -11 -6 -17t-14 -6q-208 0 -312 103q-106 104 -106 288v838h174v-832zM501 1613q54 -53 54 -128q0 -97 -82 -151q-83 -54 -231 -54q-143 0 -295 61l37 111q37 -14 77 -25q101 132 168 184q69 54 140 54q79 0 132 -52z
M370 1424q46 21 46 61q0 27 -21 43q-20 16 -49 16q-36 0 -80 -30q-44 -31 -110 -105q45 -6 82 -6q86 0 132 21z" />
    <glyph glyph-name="uniFB57" unicode="&#x67e;" horiz-adv-x="1714" arabic-form="final" 
d="M1735 164v-141q0 -11 -6 -17t-15 -6q-88 0 -166 30q-77 30 -157 93q-91 -110 -254 -121l-9 -2h-526q-250 0 -385 120t-135 347q0 166 61 434l160 -27q-24 -117 -38 -212q-11 -76 -11 -158q0 -172 90 -246q91 -74 295 -74h461q152 0 207 111q29 62 41 164q12 105 12 299
h160q0 -332 -58 -504q60 -39 118 -54q62 -16 134 -16q21 0 21 -20zM872 -309l-155 -158l-156 158l154 153zM1208 -309l-155 -158l-158 158l158 153zM1012 -561l-123 -123l-125 123l123 125z" />
    <glyph glyph-name="uniFB58" unicode="&#x67e;" horiz-adv-x="681" arabic-form="initial" 
d="M563 625q15 -133 15 -234q0 -184 -106 -288q-104 -103 -312 -103h-160q-8 0 -14 6t-6 17v141q0 20 20 20h160q130 0 189 53t59 160q0 90 -15 215q-22 183 -51 381h174q29 -204 47 -368zM252 -303l-156 -158l-155 158l153 153zM588 -303l-156 -158l-158 158l158 153z
M391 -555l-123 -123l-125 123l123 125z" />
    <glyph glyph-name="uniFB59" unicode="&#x67e;" horiz-adv-x="757" arabic-form="medial" 
d="M778 164v-141q0 -11 -6 -17t-14 -6q-199 0 -379 160q-118 -160 -379 -160q-8 0 -14 6t-6 17v141q0 20 20 20q105 0 168 27t96 82q35 60 45 157q10 93 10 308h162q0 -316 -41 -463q150 -111 318 -111q20 0 20 -20zM322 -307l-156 -158l-156 158l154 153zM657 -307
l-155 -158l-158 158l158 153zM461 -559l-123 -123l-125 123l123 125z" />
    <glyph glyph-name="uniFB67" unicode="&#x679;" horiz-adv-x="1714" arabic-form="final" 
d="M1735 164v-141q0 -11 -6 -17t-15 -6q-88 0 -166 30q-77 30 -157 93q-91 -110 -254 -121l-9 -2h-526q-250 0 -385 120t-135 347q0 166 61 434l160 -27q-24 -117 -38 -212q-11 -76 -11 -158q0 -172 90 -246q91 -74 295 -74h461q152 0 207 111q29 62 41 164q12 105 12 299
h160q0 -332 -58 -504q60 -39 118 -54q62 -16 134 -16q21 0 21 -20zM1212 1252q58 -55 58 -132q0 -99 -99 -159t-268 -60h-258l-67 119h129v352h112v-196l-4 -27q140 158 254 158q85 0 143 -55zM1133 1120q0 30 -25 50t-66 20q-46 0 -92 -35q-43 -33 -145 -135h94
q234 0 234 100z" />
    <glyph glyph-name="uniFB68" unicode="&#x679;" horiz-adv-x="778" arabic-form="initial" 
d="M563 625q15 -133 15 -234q0 -184 -106 -288q-104 -103 -312 -103h-160q-8 0 -14 6t-6 17v141q0 20 20 20h160q130 0 189 53t59 160q0 90 -15 215q-22 183 -51 381h174q29 -204 47 -368zM670 1453q57 -54 57 -132q0 -101 -98 -160q-97 -59 -269 -59h-258l-67 119h129v352
h112v-197l-4 -26q139 157 254 157q87 0 144 -54zM590 1321q0 30 -25 50t-65 20q-46 0 -92 -35q-47 -36 -146 -135h94q234 0 234 100z" />
    <glyph glyph-name="uniFB69" unicode="&#x679;" horiz-adv-x="757" arabic-form="medial" 
d="M778 164v-141q0 -11 -6 -17t-14 -6q-199 0 -379 160q-118 -160 -379 -160q-8 0 -14 6t-6 17v141q0 20 20 20q105 0 168 27t96 82q35 60 45 157q10 93 10 308h162q0 -316 -41 -463q150 -111 318 -111q20 0 20 -20zM670 1252q57 -54 57 -132q0 -100 -98 -159
q-99 -60 -269 -60h-258l-67 119h129v352h112v-196l-4 -27q140 158 254 158q86 0 144 -55zM590 1120q0 30 -25 50t-65 20q-46 0 -92 -35q-47 -36 -146 -135h94q234 0 234 100z" />
    <glyph glyph-name="uniFB6B" unicode="&#x6a4;" horiz-adv-x="1974" arabic-form="final" 
d="M1421 1423l-125 123l123 125l125 -125zM1251 1145l-155 153l153 158l158 -158zM1430 1298l157 158l156 -158l-156 -153zM1995 164v-141q0 -11 -6 -17t-15 -6q-136 0 -280 18q-135 17 -269 54q-225 -68 -544 -72h-2h-279q-250 0 -385 120t-135 347q0 140 41 328l162 -27
q-31 -174 -31 -264q0 -172 90 -246q91 -74 295 -74h223q170 0 287 13q-87 67 -131 152q-45 87 -45 192q0 126 59 229t162 164q100 59 225 59q126 0 227 -58q99 -57 159 -161q59 -103 59 -231q0 -101 -48 -189q-47 -87 -137 -157q122 -13 297 -13q21 0 21 -20zM1221 732
q-76 -76 -76 -204q0 -107 67 -193q68 -87 189 -126q140 40 213 125q72 84 72 194q0 122 -77 202q-76 79 -198 79q-113 0 -190 -77z" />
    <glyph glyph-name="uniFB6C" unicode="&#x6a4;" horiz-adv-x="1067" arabic-form="initial" 
d="M758 933q98 -59 158 -166q59 -106 59 -237q0 -245 -146 -388q-145 -142 -399 -142h-430q-20 4 -20 23v141q0 20 20 20h227q-32 59 -55 95q-51 80 -71 144q-21 66 -21 142q0 116 59 213q60 99 164 157t229 58q126 0 226 -60zM703 269q96 87 96 239q0 133 -77 216t-202 83
q-113 0 -190 -77q-76 -76 -76 -187q0 -55 17 -103q17 -49 57 -116q47 -79 71 -140h50q160 0 254 85zM678 1546l-123 -123l-125 123l123 125zM541 1298l-156 -153l-156 153l154 158zM877 1298l-156 -153l-158 153l158 158z" />
    <glyph glyph-name="uniFB6D" unicode="&#x6a4;" horiz-adv-x="1114" arabic-form="medial" 
d="M1135 164v-141q0 -10 -7 -17q-6 -6 -14 -6q-136 0 -280 18q-135 17 -269 54q-235 -72 -565 -72q-20 4 -20 23v141q0 20 20 20q170 0 287 13q-87 67 -131 152q-45 87 -45 192q0 126 59 229t162 164q100 59 225 59t226 -58t160 -161q58 -101 58 -231q0 -101 -48 -189
t-136 -157q122 -13 297 -13q21 0 21 -20zM360 732q-75 -75 -75 -204q0 -107 67 -193q68 -87 189 -126q140 40 213 125q71 83 71 194q0 123 -76 202t-198 79q-114 0 -191 -77zM688 1546l-123 -123l-125 123l123 125zM551 1298l-156 -153l-155 153l153 158zM887 1298
l-156 -153l-158 153l158 158z" />
    <glyph glyph-name="uniFB7B" unicode="&#x686;" horiz-adv-x="1333" arabic-form="final" 
d="M1354 164v-141q0 -11 -6 -17t-15 -6q-182 0 -280 79q-99 79 -99 236v121q-200 -30 -358 -107q-155 -76 -243 -187q-87 -110 -87 -232q0 -75 30 -138q31 -65 107 -147l-133 -96q-178 178 -178 381q0 168 106 310q105 141 303 234t466 126q-111 63 -250 174
q-108 85 -178 125q-69 39 -150 39q-51 0 -100 -11q-43 -10 -119 -35l-49 156q148 74 278 74q99 0 185 -48q89 -50 217 -153q116 -94 217 -160q99 -65 225 -112l-47 -174q-48 0 -113 -4v-107q0 -84 59 -122t191 -38q21 0 21 -20zM799 -227l-156 -158l-156 158l154 153z
M979 -74l156 -153l-156 -158l-158 158zM813 -354l125 -125l-123 -123l-125 123z" />
    <glyph glyph-name="uniFB7C" unicode="&#x686;" horiz-adv-x="1247" arabic-form="initial" 
d="M566 931q78 -41 206 -136q110 -86 205 -145q96 -60 219 -105l-47 -174q-134 -27 -228 -68q-84 -37 -212 -113q-95 -58 -190 -102q-78 -36 -208 -62t-309 -26q-10 0 -16 7q-6 8 -6 16v141q0 8 6 14t16 6q164 0 297 25q127 24 216 60t210 96q136 68 236 104
q-119 62 -269 174q-105 78 -170 112q-63 33 -145 33q-57 0 -101 -10t-116 -35l-51 156q153 74 278 74q99 0 179 -42zM571 -313l-155 -158l-156 158l154 153zM907 -313l-155 -158l-158 158l158 153zM711 -565l-123 -123l-125 123l123 125z" />
    <glyph glyph-name="uniFB7D" unicode="&#x686;" horiz-adv-x="1292" arabic-form="medial" 
d="M1313 164v-141q0 -11 -6 -17t-15 -6q-178 0 -268 81t-96 226q-76 -29 -138 -67q-68 -41 -81 -47q-110 -68 -189 -104q-83 -38 -209 -63q-130 -26 -309 -26q-10 0 -16 7q-6 8 -6 16v141q0 8 6 14t16 6q164 0 297 25q127 24 216 60t210 96q136 68 236 104q-119 62 -269 174
q-105 78 -170 112q-63 33 -145 33q-57 0 -101 -10t-116 -35l-51 156q153 74 278 74q99 0 179 -42q78 -41 206 -136q110 -86 205 -145q96 -60 219 -105l-47 -174q-40 -7 -94 -23q0 -80 54 -122t183 -42q21 0 21 -20zM571 -313l-155 -158l-156 158l154 153zM907 -313
l-155 -158l-158 158l158 153zM711 -565l-123 -123l-125 123l123 125z" />
    <glyph glyph-name="uniFB89" unicode="&#x688;" horiz-adv-x="1060" arabic-form="final" 
d="M1081 164v-141q0 -11 -6 -17t-14 -6q-157 0 -262 106q-184 -106 -398 -106q-99 0 -170 14q-74 14 -200 54l37 170q105 -29 179 -41q83 -13 154 -13q171 0 310 43q-29 55 -54 129q-33 100 -78 287q-38 159 -73 350h184q67 -419 131 -612q35 -104 92 -150q58 -47 148 -47
q20 0 20 -20zM827 1453q58 -55 58 -132q0 -100 -99 -160q-97 -59 -268 -59h-258l-67 119h129v352h112v-197l-4 -26q139 157 254 157q86 0 143 -54zM748 1321q0 30 -25 50t-66 20q-46 0 -92 -35q-43 -33 -145 -135h94q234 0 234 100z" />
    <glyph glyph-name="uniFB8B" unicode="&#x698;" horiz-adv-x="698" arabic-form="final" 
d="M717 164v-141q0 -11 -6 -17t-15 -6q-143 0 -209 92v-39q0 -238 -140 -365q-142 -128 -378 -128v168q157 0 255 86t98 247q0 287 -76 840h174q36 -253 53 -498l6 -45q12 -104 68 -139t149 -35q21 0 21 -20zM438 1462l-123 -123l-125 123l123 125zM301 1214l-156 -153
l-155 153l153 158zM637 1214l-156 -153l-157 153l157 158z" />
    <glyph glyph-name="uniFB8D" unicode="&#x691;" horiz-adv-x="698" arabic-form="final" 
d="M717 164v-141q0 -11 -6 -17t-15 -6q-143 0 -209 92v-39q0 -238 -140 -365q-142 -128 -378 -128v168q157 0 255 86t98 247q0 287 -76 840h174q36 -253 53 -498l6 -45q12 -104 68 -139t149 -35q21 0 21 -20zM604 1365q58 -55 58 -132q0 -100 -99 -160q-97 -59 -268 -59
h-258l-68 119h129v352h113v-197l-4 -26q139 157 254 157q86 0 143 -54zM524 1233q0 31 -24 50q-25 20 -66 20q-46 0 -92 -35q-43 -33 -145 -135h94q233 0 233 100z" />
    <glyph glyph-name="uniFB8F" unicode="&#x6a9;" horiz-adv-x="2021" arabic-form="final" 
d="M2042 164v-141q0 -11 -6 -17t-15 -6q-94 0 -181 35q-88 35 -171 110q-70 -70 -180 -107q-112 -38 -250 -38h-580h-57q-250 0 -385 120t-135 347q0 166 61 434l160 -26q-24 -114 -38 -213q-11 -76 -11 -158q0 -172 90 -246q91 -74 295 -74h489h127q150 0 250 62
q99 62 99 155q0 84 -75 153q-74 68 -255 151l-492 219v141l750 573l108 -135l-634 -479l354 -158q208 -91 313 -204q105 -112 105 -252q0 -72 -27 -146q64 -44 128 -62q63 -18 142 -18q21 0 21 -20z" />
    <glyph glyph-name="uniFB90" unicode="&#x6a9;" horiz-adv-x="1189" arabic-form="initial" 
d="M1014 662q104 -111 104 -252q0 -122 -65 -214q-67 -94 -188 -145t-285 -51h-580q-8 0 -14 6t-6 17v141q0 20 20 20h596q150 0 250 62q98 61 98 155q0 84 -75 153q-74 68 -255 151l-491 219v141l749 573l109 -135l-635 -479l354 -158q209 -92 314 -204z" />
    <glyph glyph-name="uniFB91" unicode="&#x6a9;" horiz-adv-x="1329" arabic-form="medial" 
d="M1350 164v-141q0 -10 -7 -17q-6 -6 -14 -6q-91 0 -173 32t-161 99q-71 -62 -178 -97q-105 -34 -237 -34h-580q-8 0 -14 6t-6 17v141q0 20 20 20h596q150 0 250 62q98 61 98 155q0 84 -75 153q-74 68 -255 151l-491 219v141l749 573l109 -135l-635 -479l354 -158
q209 -92 314 -204q104 -111 104 -252q0 -84 -35 -162q58 -34 117 -49q57 -15 129 -15q21 0 21 -20z" />
    <glyph glyph-name="uniFB93" unicode="&#x6af;" horiz-adv-x="2021" arabic-form="final" 
d="M696 1176l-75 98l518 418l78 -97zM2042 164v-141q0 -11 -6 -17t-15 -6q-94 0 -181 35q-88 35 -171 110q-70 -70 -180 -107q-112 -38 -250 -38h-580h-57q-250 0 -385 120t-135 347q0 166 61 434l160 -26q-24 -114 -38 -213q-11 -76 -11 -158q0 -172 90 -246
q91 -74 295 -74h489h127q150 0 250 62q99 62 99 155q0 84 -75 153q-74 68 -255 151l-492 219v141l750 573l108 -135l-634 -479l354 -158q208 -91 313 -204q105 -112 105 -252q0 -72 -27 -146q64 -44 128 -62q63 -18 142 -18q21 0 21 -20z" />
    <glyph glyph-name="uniFB94" unicode="&#x6af;" horiz-adv-x="1466" arabic-form="initial" 
d="M250 1176l-76 98l518 418l78 -97zM1290 662q105 -112 105 -252q0 -121 -66 -214q-67 -95 -187 -145q-121 -51 -286 -51h-580h-276q-8 0 -14 6t-6 17v141q0 20 20 20h397h475q150 0 250 62q99 62 99 155q0 84 -75 153q-74 68 -255 151l-492 219v141l750 573l108 -135
l-634 -479l354 -158q208 -91 313 -204z" />
    <glyph glyph-name="uniFB95" unicode="&#x6af;" horiz-adv-x="1605" arabic-form="medial" 
d="M250 1176l-76 98l518 418l78 -97zM1626 164v-141q0 -11 -6 -17t-14 -6q-91 0 -173 32t-161 99q-71 -62 -178 -97q-105 -34 -238 -34h-580h-276q-8 0 -14 6t-6 17v141q0 20 20 20h397h475q150 0 250 62q99 62 99 155q0 84 -75 153q-74 68 -255 151l-492 219v141l750 573
l108 -135l-634 -479l354 -158q208 -91 313 -204q105 -112 105 -252q0 -84 -35 -162q58 -34 117 -49q57 -15 129 -15q20 0 20 -20z" />
    <glyph glyph-name="uniFB9F" unicode="&#x6ba;" horiz-adv-x="1441" arabic-form="final" 
d="M1462 164v-141q0 -11 -6 -17t-14 -6q-156 0 -219 106q-22 -251 -167 -399q-144 -147 -405 -147q-267 0 -413 137t-146 420q0 196 92 467l148 -39q-76 -207 -76 -398q0 -201 100 -302t312 -101q204 0 298 111q95 112 95 348q0 107 -17 246q-18 151 -55 397l-8 55h174
q48 -335 62 -487l8 -56q12 -105 67 -139q56 -35 150 -35q20 0 20 -20z" />
    <glyph glyph-name="uniFBA7" unicode="&#x6c1;" horiz-adv-x="1269" arabic-form="final" 
d="M836 792q88 -87 184 -309q36 -82 71 -155q28 -57 72 -100q46 -44 107 -44q20 0 20 -20v-141q0 -11 -6 -17t-14 -6q-132 0 -223 88q-95 92 -173 295q-47 123 -80 184q-37 67 -79 98q-43 31 -107 31q-91 0 -157 -75q-67 -77 -156 -273l-76 -172l-147 70l75 172
q107 248 215 356q107 107 246 107q137 0 228 -89z" />
    <glyph glyph-name="uniFBA8" unicode="&#x6c1;" horiz-adv-x="561" arabic-form="initial" 
d="M403 632q15 -137 15 -241q0 -184 -106 -288q-104 -103 -312 -103q-8 0 -14 6t-6 17v141q0 20 20 20q129 0 190 53q60 53 60 160q0 95 -14 208q-16 128 -54 388h174q29 -199 47 -361zM219 -348h113l-37 -215h-225v211l110 225h142z" />
    <glyph glyph-name="uniFBA9" unicode="&#x6c1;" horiz-adv-x="1484" arabic-form="medial" 
d="M1499 178q6 -6 6 -16v-142q0 -20 -20 -20h-232q-217 0 -217 -266v-129l-143 -168q-324 0 -476 151q-153 152 -153 471v25q-45 -42 -110 -64q-60 -20 -154 -20q-8 0 -14 6t-6 17v141q0 20 20 20q103 0 184 38q80 38 80 130v406h174v-711q0 -210 106 -314
q106 -105 328 -112v133q0 204 100 318q99 112 281 112h232q8 0 14 -6zM1300 -348h113l-37 -215h-225v211l111 225h141z" />
    <glyph glyph-name="uniFBAB" unicode="&#x6be;" horiz-adv-x="1263" arabic-form="final" 
d="M1278 178q6 -6 6 -16v-142q0 -20 -20 -20q-99 0 -199 35q80 -101 80 -199q0 -124 -93 -201q-91 -75 -249 -75q-170 0 -298 92q-129 93 -192 256q-96 -60 -182 -133l-100 129q124 113 237 180q-10 74 -10 145q0 250 112 491q111 238 318 427h137q140 -129 224 -281
t84 -291q0 -207 -168 -346q121 -45 299 -45q8 0 14 -6zM434 172q92 41 193 80q169 60 250 137t81 180q0 116 -60 224q-59 107 -157 200q-138 -129 -224 -323q-87 -196 -87 -412q0 -39 4 -86zM937 -226q48 32 48 91q0 64 -37 128q-37 63 -121 146q-72 -34 -149 -61
q-121 -41 -205 -82q47 -125 137 -190q89 -64 197 -64q81 0 130 32z" />
    <glyph glyph-name="uniFBAC" unicode="&#x6be;" horiz-adv-x="1540" arabic-form="initial" 
d="M1007 1277q214 -94 328 -265q113 -170 113 -394q0 -82 -29 -212q-27 -119 -82 -271l-174 -162q-273 0 -581 105q-234 -78 -582 -78q-20 4 -20 23v141q0 20 20 20q183 0 285 15q-84 63 -129 151t-45 191q0 127 58 230t159 163q99 59 223 59q127 0 227 -58q99 -58 157 -161
q56 -100 56 -231q0 -104 -49 -192q-50 -90 -139 -158q205 -35 364 -35q49 105 76 223q29 125 29 221q0 156 -85 289q-85 132 -261 215q-174 82 -439 82l2 184q301 0 518 -95zM358 732q-73 -76 -73 -204q0 -106 66 -193t184 -126q138 40 209 125t71 194q0 122 -75 202
q-75 79 -195 79q-113 0 -187 -77z" />
    <glyph glyph-name="uniFBAD" unicode="&#x6be;" horiz-adv-x="1132" arabic-form="medial" 
d="M1147 178q6 -6 6 -16v-142q0 -20 -20 -20q-97 0 -197 35q78 -102 78 -199q0 -124 -93 -201q-91 -75 -249 -75q-193 0 -333 121q-141 121 -187 323q-88 -4 -152 -4q-8 0 -14 6t-6 17v141q0 20 20 20q75 0 129 2v17q0 242 105 496q104 252 323 448h137q140 -122 224 -273
q83 -150 83 -299q0 -211 -159 -348q122 -43 291 -43q8 0 14 -6zM293 201q263 34 399 131q135 96 135 237q0 223 -215 424q-154 -138 -237 -349q-82 -209 -82 -402v-41zM808 -226q48 32 48 91q0 63 -36 126t-118 142q-158 -80 -378 -110q44 -140 140 -210q98 -71 214 -71
q81 0 130 32z" />
    <glyph glyph-name="uniFBAF" unicode="&#x6d2;" horiz-adv-x="1503" arabic-form="final" 
d="M1524 164v-141q0 -11 -6 -17t-15 -6h-1011q-226 0 -226 -129q0 -67 70 -97q69 -30 207 -30h712l-77 -184h-586q-258 0 -378 74q-122 75 -122 233q0 154 115 236q114 81 340 81h956q21 0 21 -20z" />
    <glyph glyph-name="uniFBB1" unicode="&#x6d3;" horiz-adv-x="1503" arabic-form="final" 
d="M1524 164v-141q0 -11 -6 -17t-15 -6h-1011q-226 0 -226 -129q0 -67 70 -97q69 -30 207 -30h712l-77 -184h-586q-258 0 -378 74q-122 75 -122 233q0 154 115 236q114 81 340 81h956q21 0 21 -20zM944 618l-45 -149h-256q-56 0 -99 -7q-49 -8 -118 -28v144q78 29 123 34
q-45 46 -45 113q0 83 58 140t157 57q71 0 149 -39v-138q-85 27 -139 27q-45 0 -71 -20q-27 -21 -27 -56q0 -36 34 -57q35 -21 91 -21h188z" />
    <glyph glyph-name="uniFBFD" unicode="&#x6cc;" horiz-adv-x="1390" arabic-form="final" 
d="M1411 164v-141q0 -11 -6 -17t-14 -6h-19q-95 -219 -274 -329q-180 -111 -436 -111q-278 0 -429 142t-151 415q0 196 92 467l148 -39q-76 -207 -76 -398q0 -206 112 -305q111 -98 342 -98q174 0 307 69q134 69 207 203q-81 15 -221 54v174q141 -32 239 -48q75 -12 159 -12
q20 0 20 -20z" />
    <glyph glyph-name="uniFBFE" unicode="&#x6cc;" horiz-adv-x="681" arabic-form="initial" 
d="M563 625q15 -133 15 -234q0 -184 -106 -288q-104 -103 -312 -103h-160q-8 0 -14 6t-6 17v141q0 20 20 20h160q130 0 189 53t59 160q0 90 -15 215q-22 183 -51 381h174q29 -204 47 -368zM428 -469l-154 152l-153 -152l-156 156l154 153l155 -149l154 149l156 -153z" />
    <glyph glyph-name="uniFBFF" unicode="&#x6cc;" horiz-adv-x="757" arabic-form="medial" 
d="M778 164v-141q0 -11 -6 -17t-14 -6q-199 0 -379 160q-118 -160 -379 -160q-8 0 -14 6t-6 17v141q0 20 20 20q105 0 168 27t96 82q35 60 45 157q10 93 10 308h162q0 -316 -41 -463q150 -111 318 -111q20 0 20 -20zM500 -469l-154 152l-153 -152l-156 156l153 153l156 -149
l154 149l155 -153z" />
    <glyph glyph-name="uniFC02" unicode="&#xfc02;" horiz-adv-x="1110" arabic-form="isolated" 
d="M950 27q-146 27 -268 129q-132 49 -256 49q-94 0 -137 -45q-43 -44 -43 -148q0 -94 15 -218q16 -131 52 -357h-174q-36 216 -53 366q-14 120 -14 232q0 164 95 259t247 95q94 0 215 -33q-74 134 -74 262q0 134 71 256q71 123 197 216h21l108 -111q-123 -106 -173 -193
q-50 -86 -50 -190q0 -92 39 -167q40 -77 121 -155q76 -37 149 -86zM1061 1389l-45 -150h-256q-57 0 -100 -7q-47 -8 -117 -28v144q78 29 123 34q-45 46 -45 113q0 83 58 140q59 57 157 57q71 0 149 -39v-137q-82 26 -139 26q-45 0 -71 -20q-27 -21 -27 -56q0 -37 33 -57
t91 -20h189z" />
    <glyph glyph-name="uniFC03" unicode="&#xfc03;" horiz-adv-x="1804" arabic-form="isolated" 
d="M1755 1247l-45 -149h-256q-56 0 -99 -7q-49 -8 -118 -28v143q81 31 123 35q-45 47 -45 113q0 83 58 140q57 56 157 56q71 0 149 -39v-137q-85 27 -139 27q-44 0 -71 -21t-27 -55q0 -36 34 -57q35 -21 91 -21h188zM1597 993q33 -226 48 -361q14 -127 14 -241
q0 -153 -71 -250t-210 -127q-92 -224 -274 -339t-442 -115q-278 0 -429 142t-151 415q0 196 92 467l148 -39q-76 -207 -76 -398q0 -206 112 -305q111 -98 342 -98q166 0 298 63t206 193h-332l31 184h338q130 0 191 53q59 52 59 160q0 95 -14 208q-16 128 -54 388h174z" />
    <glyph glyph-name="uniFC04" unicode="&#xfc04;" horiz-adv-x="1804" arabic-form="isolated" 
d="M1755 1247l-45 -149h-256q-56 0 -99 -7q-49 -8 -118 -28v143q81 31 123 35q-45 47 -45 113q0 83 58 140q57 56 157 56q71 0 149 -39v-137q-85 27 -139 27q-44 0 -71 -21t-27 -55q0 -36 34 -57q35 -21 91 -21h188zM1597 993q33 -226 48 -361q14 -127 14 -241
q0 -153 -71 -250t-210 -127q-92 -224 -274 -339t-442 -115q-278 0 -429 142t-151 415q0 196 92 467l148 -39q-76 -207 -76 -398q0 -206 112 -305q111 -98 342 -98q166 0 298 63t206 193h-332l31 184h338q130 0 191 53q59 52 59 160q0 95 -14 208q-16 128 -54 388h174z
M989 -870l-153 151l-154 -151l-156 155l154 154l156 -150l153 150l156 -154z" />
    <glyph glyph-name="uniFC08" unicode="&#xfc08;" horiz-adv-x="1110" arabic-form="isolated" 
d="M950 27q-146 27 -268 129q-132 49 -256 49q-94 0 -137 -45q-43 -44 -43 -148q0 -94 15 -218q16 -131 52 -357h-174q-36 216 -53 366q-14 120 -14 232q0 164 95 259t247 95q94 0 215 -33q-74 134 -74 262q0 134 71 256q71 123 197 216h21l108 -111q-123 -106 -173 -193
q-50 -86 -50 -190q0 -92 39 -167q40 -77 121 -155q76 -37 149 -86zM809 -313l-154 -156l-157 156l153 153z" />
    <glyph glyph-name="uniFC09" unicode="&#xfc09;" horiz-adv-x="1783" arabic-form="isolated" 
d="M1588 141q-71 -97 -210 -127q-92 -224 -274 -339t-442 -115q-278 0 -429 142t-151 415q0 196 92 467l148 -39q-76 -207 -76 -398q0 -206 112 -305q111 -98 342 -98q166 0 298 63t206 193h-332l31 184h338q130 0 191 53q59 52 59 160q0 95 -14 208q-16 128 -54 388h174
q33 -226 48 -361q14 -127 14 -241q0 -153 -71 -250zM1491 -160l158 -153l-154 -156l-158 156z" />
    <glyph glyph-name="uniFC0A" unicode="&#xfc0a;" horiz-adv-x="1783" arabic-form="isolated" 
d="M1588 141q-71 -97 -210 -127q-92 -224 -274 -339t-442 -115q-278 0 -429 142t-151 415q0 196 92 467l148 -39q-76 -207 -76 -398q0 -206 112 -305q111 -98 342 -98q166 0 298 63t206 193h-332l31 184h338q130 0 191 53q59 52 59 160q0 95 -14 208q-16 128 -54 388h174
q33 -226 48 -361q14 -127 14 -241q0 -153 -71 -250zM1491 -160l158 -153l-154 -156l-158 156zM989 -870l-153 151l-154 -151l-156 155l154 154l156 -150l153 150l156 -154z" />
    <glyph glyph-name="uniFC0E" unicode="&#xfc0e;" horiz-adv-x="1110" arabic-form="isolated" 
d="M950 27q-146 27 -268 129q-132 49 -256 49q-94 0 -137 -45q-43 -44 -43 -148q0 -94 15 -218q16 -131 52 -357h-174q-36 216 -53 366q-14 120 -14 232q0 164 95 259t247 95q94 0 215 -33q-74 134 -74 262q0 134 71 256q71 123 197 216h21l108 -111q-123 -106 -173 -193
q-50 -86 -50 -190q0 -92 39 -167q40 -77 121 -155q76 -37 149 -86zM991 1223l-153 149l-154 -149l-156 153l154 156l156 -152l153 152l156 -156z" />
    <glyph glyph-name="uniFC0F" unicode="&#xfc0f;" horiz-adv-x="1861" arabic-form="isolated" 
d="M1350 1151l-156 154l154 155l155 -151l154 151l155 -155l-155 -154l-154 149zM1597 993q33 -226 48 -361q14 -127 14 -241q0 -153 -71 -250t-210 -127q-92 -224 -274 -339t-442 -115q-278 0 -429 142t-151 415q0 196 92 467l148 -39q-76 -207 -76 -398q0 -206 112 -305
q111 -98 342 -98q166 0 298 63t206 193h-332l31 184h338q130 0 191 53q59 52 59 160q0 95 -14 208q-16 128 -54 388h174z" />
    <glyph glyph-name="uniFC10" unicode="&#xfc10;" horiz-adv-x="1861" arabic-form="isolated" 
d="M1350 1151l-156 154l154 155l155 -151l154 151l155 -155l-155 -154l-154 149zM1597 993q33 -226 48 -361q14 -127 14 -241q0 -153 -71 -250t-210 -127q-92 -224 -274 -339t-442 -115q-278 0 -429 142t-151 415q0 196 92 467l148 -39q-76 -207 -76 -398q0 -206 112 -305
q111 -98 342 -98q166 0 298 63t206 193h-332l31 184h338q130 0 191 53q59 52 59 160q0 95 -14 208q-16 128 -54 388h174zM989 -870l-153 151l-154 -151l-156 155l154 154l156 -150l153 150l156 -154z" />
    <glyph glyph-name="uniFC12" unicode="&#xfc12;" horiz-adv-x="1110" arabic-form="isolated" 
d="M950 27q-146 27 -268 129q-132 49 -256 49q-94 0 -137 -45q-43 -44 -43 -148q0 -94 15 -218q16 -131 52 -357h-174q-36 216 -53 366q-14 120 -14 232q0 164 95 259t247 95q94 0 215 -33q-74 134 -74 262q0 134 71 256q71 123 197 216h21l108 -111q-123 -106 -173 -193
q-50 -86 -50 -190q0 -92 39 -167q40 -77 121 -155q76 -37 149 -86zM965 1651l-123 -123l-125 123l123 125zM827 1403l-155 -154l-156 154l154 158zM1163 1403l-155 -154l-158 154l158 158z" />
    <glyph glyph-name="uniFC13" unicode="&#xfc13;" horiz-adv-x="1880" arabic-form="isolated" 
d="M1507 1421l-125 123l123 125l125 -125zM1337 1143l-155 153l153 158l158 -158zM1829 1296l-156 -153l-157 153l157 158zM1597 993q33 -226 48 -361q14 -127 14 -241q0 -153 -71 -250t-210 -127q-92 -224 -274 -339t-442 -115q-278 0 -429 142t-151 415q0 196 92 467
l148 -39q-76 -207 -76 -398q0 -206 112 -305q111 -98 342 -98q166 0 298 63t206 193h-332l31 184h338q130 0 191 53q59 52 59 160q0 95 -14 208q-16 128 -54 388h174z" />
    <glyph glyph-name="uniFC14" unicode="&#xfc14;" horiz-adv-x="1880" arabic-form="isolated" 
d="M1507 1421l-125 123l123 125l125 -125zM1337 1143l-155 153l153 158l158 -158zM1829 1296l-156 -153l-157 153l157 158zM1597 993q33 -226 48 -361q14 -127 14 -241q0 -153 -71 -250t-210 -127q-92 -224 -274 -339t-442 -115q-278 0 -429 142t-151 415q0 196 92 467
l148 -39q-76 -207 -76 -398q0 -206 112 -305q111 -98 342 -98q166 0 298 63t206 193h-332l31 184h338q130 0 191 53q59 52 59 160q0 95 -14 208q-16 128 -54 388h174zM989 -870l-153 151l-154 -151l-156 155l154 154l156 -150l153 150l156 -154z" />
    <glyph glyph-name="uniFC31" unicode="&#xfc31;" horiz-adv-x="1763" arabic-form="isolated" 
d="M1599 169q-72 -102 -217 -142q-91 -231 -274 -349q-184 -118 -447 -118q-277 0 -428 142t-151 415q0 196 92 467l148 -39q-76 -207 -76 -398q0 -206 112 -305q111 -98 342 -98q165 0 297 65q131 65 207 191h-30h-312l31 184h301q162 0 231 57q70 58 76 189
q-132 -61 -254 -61q-190 0 -295 101q-106 102 -106 292q0 127 53 230q52 101 145 159q92 57 207 57q172 0 283 -112q110 -112 121 -301q16 -218 16 -373q0 -151 -72 -253zM1495 567l-14 209q-7 118 -74 183t-168 65q-94 0 -157 -71q-62 -69 -62 -183q0 -117 67 -177
q69 -61 187 -61q119 0 221 35zM1409 1489l-154 -154l-157 154l153 156z" />
    <glyph glyph-name="uniFC32" unicode="&#xfc32;" horiz-adv-x="1763" arabic-form="isolated" 
d="M1599 169q-72 -102 -217 -142q-91 -231 -274 -349q-184 -118 -447 -118q-277 0 -428 142t-151 415q0 196 92 467l148 -39q-76 -207 -76 -398q0 -206 112 -305q111 -98 342 -98q165 0 297 65q131 65 207 191h-30h-312l31 184h301q162 0 231 57q70 58 76 189
q-132 -61 -254 -61q-190 0 -295 101q-106 102 -106 292q0 127 53 230q52 101 145 159q92 57 207 57q172 0 283 -112q110 -112 121 -301q16 -218 16 -373q0 -151 -72 -253zM1495 567l-14 209q-7 118 -74 183t-168 65q-94 0 -157 -71q-62 -69 -62 -183q0 -117 67 -177
q69 -61 187 -61q119 0 221 35zM1399 1489l-154 -154l-158 154l154 156zM928 -870l-154 151l-153 -151l-156 155l153 154l156 -150l154 150l155 -154z" />
    <glyph glyph-name="uniFC35" unicode="&#xfc35;" horiz-adv-x="1763" arabic-form="isolated" 
d="M1599 169q-72 -102 -217 -142q-91 -231 -274 -349q-184 -118 -447 -118q-277 0 -428 142t-151 415q0 196 92 467l148 -39q-76 -207 -76 -398q0 -206 112 -305q111 -98 342 -98q165 0 297 65q131 65 207 191h-30h-312l31 184h301q162 0 231 57q70 58 76 189
q-132 -61 -254 -61q-190 0 -295 101q-106 102 -106 292q0 127 53 230q52 101 145 159q92 57 207 57q172 0 283 -112q110 -112 121 -301q16 -218 16 -373q0 -151 -72 -253zM1495 567l-14 209q-7 118 -74 183t-168 65q-94 0 -157 -71q-62 -69 -62 -183q0 -117 67 -177
q69 -61 187 -61q119 0 221 35zM1411 1337l-154 150l-153 -150l-156 154l154 156l155 -152l154 152l156 -156z" />
    <glyph glyph-name="uniFC36" unicode="&#xfc36;" horiz-adv-x="1763" arabic-form="isolated" 
d="M1599 169q-72 -102 -217 -142q-91 -231 -274 -349q-184 -118 -447 -118q-277 0 -428 142t-151 415q0 196 92 467l148 -39q-76 -207 -76 -398q0 -206 112 -305q111 -98 342 -98q165 0 297 65q131 65 207 191h-30h-312l31 184h301q162 0 231 57q70 58 76 189
q-132 -61 -254 -61q-190 0 -295 101q-106 102 -106 292q0 127 53 230q52 101 145 159q92 57 207 57q172 0 283 -112q110 -112 121 -301q16 -218 16 -373q0 -151 -72 -253zM1495 567l-14 209q-7 118 -74 183t-168 65q-94 0 -157 -71q-62 -69 -62 -183q0 -117 67 -177
q69 -61 187 -61q119 0 221 35zM1411 1337l-154 150l-153 -150l-156 154l154 156l155 -152l154 152l156 -156zM958 -870l-153 151l-154 -151l-155 155l153 154l156 -150l153 150l156 -154z" />
    <glyph glyph-name="uniFC3D" unicode="&#xfc3d;" horiz-adv-x="2891" arabic-form="isolated" 
d="M2716 662q104 -111 104 -252q0 -122 -65 -214q-67 -94 -188 -145q-122 -51 -286 -51h-454q-217 0 -336 116t-119 335q0 140 41 354q-172 -10 -301 -54q-130 -44 -199 -107t-69 -130q0 -50 33 -88q31 -35 131 -102l90 -60q114 -73 162 -146q49 -74 49 -165
q0 -117 -72 -206q-72 -88 -206 -138q-132 -49 -318 -49q-299 0 -465 138t-166 419q0 196 92 467l148 -39q-76 -207 -76 -398q0 -205 130 -305t404 -100q164 0 264 54q101 54 101 136q0 40 -37 80q-42 45 -121 99l-94 63q-115 78 -166 152q-49 71 -49 170q0 124 82 225
q83 103 254 174q170 71 428 98l145 -114q-59 -274 -59 -406q0 -142 76 -215q77 -74 225 -74h469q150 0 250 62q98 61 98 155q0 84 -75 153q-74 68 -255 151l-491 219v141l749 573l109 -135l-635 -479l354 -158q209 -92 314 -204z" />
    <glyph glyph-name="uniFC3E" unicode="&#xfc3e;" horiz-adv-x="2891" arabic-form="isolated" 
d="M2716 662q104 -111 104 -252q0 -122 -65 -214q-67 -94 -188 -145q-122 -51 -286 -51h-454q-217 0 -336 116t-119 335q0 140 41 354q-172 -10 -301 -54q-130 -44 -199 -107t-69 -130q0 -50 33 -88q31 -35 131 -102l90 -60q114 -73 162 -146q49 -74 49 -165
q0 -117 -72 -206q-72 -88 -206 -138q-132 -49 -318 -49q-299 0 -465 138t-166 419q0 196 92 467l148 -39q-76 -207 -76 -398q0 -205 130 -305t404 -100q164 0 264 54q101 54 101 136q0 40 -37 80q-42 45 -121 99l-94 63q-115 78 -166 152q-49 71 -49 170q0 124 82 225
q83 103 254 174q170 71 428 98l145 -114q-59 -274 -59 -406q0 -142 76 -215q77 -74 225 -74h469q150 0 250 62q98 61 98 155q0 84 -75 153q-74 68 -255 151l-491 219v141l749 573l109 -135l-635 -479l354 -158q209 -92 314 -204zM989 -870l-153 151l-154 -151l-156 155
l154 154l156 -150l153 150l156 -154z" />
    <glyph glyph-name="uniFC42" unicode="&#xfc42;" horiz-adv-x="1058" arabic-form="isolated" 
d="M971 27q-148 27 -269 129q-132 49 -256 49q-94 0 -137 -45q-43 -44 -43 -148q0 -85 16 -218q16 -131 52 -357h-174q-39 237 -54 366q-14 120 -14 232q0 164 95 259t247 95q90 0 203 -29q-14 101 -14 187v938h174v-1161q137 -51 262 -136z" />
    <glyph glyph-name="uniFC44" unicode="&#xfc44;" horiz-adv-x="1771" arabic-form="isolated" 
d="M1597 1485v-1094q0 -128 -53 -220q-52 -90 -158 -134q-88 -235 -273 -356t-451 -121q-278 0 -429 142t-151 415q0 196 92 467l148 -39q-76 -207 -76 -398q0 -206 112 -305q111 -98 342 -98q165 0 297 65q131 65 207 191h-24h-308l31 184h277q129 0 187 52q56 50 56 161
v1088h174zM944 -850l-153 152l-154 -152l-156 156l154 153l156 -149l153 149l156 -153z" />
    <glyph glyph-name="uniFC4E" unicode="&#xfc4e;" horiz-adv-x="1110" arabic-form="isolated" 
d="M950 27q-146 27 -268 129q-132 49 -256 49q-94 0 -137 -45q-43 -44 -43 -148q0 -94 15 -218q16 -131 52 -357h-174q-36 216 -53 366q-14 120 -14 232q0 164 95 259t247 95q94 0 215 -33q-74 134 -74 262q0 134 71 256q71 123 197 216h21l108 -111q-123 -106 -173 -193
q-50 -86 -50 -190q0 -92 39 -167q40 -77 121 -155q76 -37 149 -86zM995 1391l-153 -154l-158 154l154 155z" />
    <glyph glyph-name="uniFC4F" unicode="&#xfc4f;" horiz-adv-x="1771" arabic-form="isolated" 
d="M1497 1139l-158 153l154 156l158 -156zM1588 141q-71 -97 -210 -127q-92 -224 -274 -339t-442 -115q-278 0 -429 142t-151 415q0 196 92 467l148 -39q-76 -207 -76 -398q0 -206 112 -305q111 -98 342 -98q166 0 298 63t206 193h-332l31 184h338q130 0 191 53
q59 52 59 160q0 95 -14 208q-16 128 -54 388h174q33 -226 48 -361q14 -127 14 -241q0 -153 -71 -250z" />
    <glyph glyph-name="uniFC50" unicode="&#xfc50;" horiz-adv-x="1771" arabic-form="isolated" 
d="M1497 1139l-158 153l154 156l158 -156zM1588 141q-71 -97 -210 -127q-92 -224 -274 -339t-442 -115q-278 0 -429 142t-151 415q0 196 92 467l148 -39q-76 -207 -76 -398q0 -206 112 -305q111 -98 342 -98q166 0 298 63t206 193h-332l31 184h338q130 0 191 53
q59 52 59 160q0 95 -14 208q-16 128 -54 388h174q33 -226 48 -361q14 -127 14 -241q0 -153 -71 -250zM989 -870l-153 151l-154 -151l-156 155l154 154l156 -150l153 150l156 -154z" />
    <glyph glyph-name="uniFC58" unicode="&#xfc58;" horiz-adv-x="1110" arabic-form="isolated" 
d="M950 27q-146 27 -268 129q-132 49 -256 49q-94 0 -137 -45q-43 -44 -43 -148q0 -94 15 -218q16 -131 52 -357h-174q-36 216 -53 366q-14 120 -14 232q0 164 95 259t247 95q94 0 215 -33q-74 134 -74 262q0 134 71 256q71 123 197 216h21l108 -111q-123 -106 -173 -193
q-50 -86 -50 -190q0 -92 39 -167q40 -77 121 -155q76 -37 149 -86zM831 -461l-153 152l-154 -152l-155 156l153 153l156 -149l153 149l156 -153z" />
    <glyph glyph-name="uniFC64" unicode="&#xfc64;" horiz-adv-x="1234" arabic-form="final" 
d="M1255 164v-141q0 -11 -6 -17t-14 -6q-184 0 -278 101q-95 103 -95 294q0 164 35 357q-233 -116 -442 -150q32 -317 32 -549q0 -158 -66 -269t-183 -168q-115 -56 -269 -56v168q151 0 252 87t101 246q0 135 -13 294q-10 126 -43 378l21 25q185 16 326 60q137 42 298 122
l162 -90q-49 -215 -49 -385q0 -145 50 -213t161 -68q20 0 20 -20zM1169 1300l-45 -149h-256q-56 0 -99 -7q-49 -8 -118 -28v144q78 29 123 34q-45 46 -45 113q0 83 58 140q59 57 157 57q72 0 150 -39v-138q-86 27 -140 27q-44 0 -70 -20q-28 -22 -28 -56q0 -36 34 -57
t91 -21h188z" />
    <glyph glyph-name="uniFC65" unicode="&#xfc65;" horiz-adv-x="1234" arabic-form="final" 
d="M1255 164v-141q0 -11 -6 -17t-14 -6q-184 0 -278 101q-95 103 -95 294q0 164 35 357q-233 -116 -442 -150q32 -317 32 -549q0 -158 -66 -269t-183 -168q-115 -56 -269 -56v168q151 0 252 87t101 246q0 135 -13 294q-10 126 -43 378l21 25q185 16 326 60q137 42 298 122
l162 -90q-49 -215 -49 -385q0 -145 50 -213t161 -68q20 0 20 -20zM451 1135l-154 -154l-158 154l154 155zM1190 1300l-45 -149h-256q-56 0 -99 -7q-49 -8 -118 -28v144q78 29 123 34q-45 46 -45 113q0 83 58 140t157 57q71 0 149 -39v-138q-86 27 -139 27q-45 0 -71 -20
q-27 -21 -27 -56q0 -37 33 -57q35 -21 91 -21h189z" />
    <glyph glyph-name="uniFC67" unicode="&#xfc67;" horiz-adv-x="1986" arabic-form="final" 
d="M655 809l-157 154l153 155l158 -155zM2001 164v-141q0 -11 -6 -17t-15 -6q-183 0 -277 101q-95 103 -95 294q0 159 37 357q-216 -110 -443 -148q29 -229 29 -401q0 -291 -148 -468q-147 -175 -432 -175q-267 0 -413 137t-146 420q0 196 92 467l148 -39q-76 -207 -76 -398
q0 -201 100 -302t312 -101q204 0 298 111q95 112 95 348q0 98 -9 192q-5 52 -34 297l-6 41l20 25q186 16 327 60q137 42 298 122l162 -90q-24 -104 -35 -202q-12 -104 -12 -183q0 -146 49 -213q50 -68 159 -68q21 0 21 -20zM1829 1298l-45 -149h-256q-57 0 -100 -7
q-47 -8 -117 -28v143q81 31 123 35q-45 46 -45 113q0 83 58 140q59 57 157 57q71 0 149 -39v-138q-85 27 -139 27q-45 0 -71 -20q-27 -21 -27 -56q0 -37 33 -57q35 -21 91 -21h189z" />
    <glyph glyph-name="uniFC68" unicode="&#xfc68;" horiz-adv-x="1851" arabic-form="final" 
d="M1315 1192q-57 0 -100 -7q-47 -8 -117 -28v143q81 31 123 35q-45 47 -45 113q0 83 58 140t157 57q71 0 149 -39v-138q-86 27 -139 27q-45 0 -71 -20q-27 -21 -27 -56q0 -37 33 -57q35 -21 91 -21h189l-45 -149h-256zM1872 164v-141q0 -11 -6 -17t-15 -6q-221 0 -350 117
t-129 334q0 140 41 354q-172 -10 -301 -54q-130 -44 -199 -107t-69 -130q0 -50 33 -88q31 -35 131 -102l90 -60q114 -73 162 -146q49 -74 49 -165q0 -117 -72 -206q-72 -88 -206 -138q-132 -49 -318 -49q-299 0 -465 138t-166 419q0 196 92 467l148 -39q-76 -207 -76 -398
q0 -205 130 -305t404 -100q164 0 264 54q101 54 101 136q0 40 -37 80q-42 45 -121 99l-94 63q-115 78 -166 152q-49 71 -49 170q0 124 82 225q83 103 254 174q170 71 428 98l145 -102q-59 -271 -59 -418q0 -136 86 -213q85 -76 237 -76q21 0 21 -20z" />
    <glyph glyph-name="uniFC69" unicode="&#xfc69;" horiz-adv-x="1851" arabic-form="final" 
d="M1315 1192q-57 0 -100 -7q-47 -8 -117 -28v143q81 31 123 35q-45 47 -45 113q0 83 58 140t157 57q71 0 149 -39v-138q-86 27 -139 27q-45 0 -71 -20q-27 -21 -27 -56q0 -37 33 -57q35 -21 91 -21h189l-45 -149h-256zM1872 164v-141q0 -11 -6 -17t-15 -6q-221 0 -350 117
t-129 334q0 140 41 354q-172 -10 -301 -54q-130 -44 -199 -107t-69 -130q0 -50 33 -88q31 -35 131 -102l90 -60q114 -73 162 -146q49 -74 49 -165q0 -117 -72 -206q-72 -88 -206 -138q-132 -49 -318 -49q-299 0 -465 138t-166 419q0 196 92 467l148 -39q-76 -207 -76 -398
q0 -205 130 -305t404 -100q164 0 264 54q101 54 101 136q0 40 -37 80q-42 45 -121 99l-94 63q-115 78 -166 152q-49 71 -49 170q0 124 82 225q83 103 254 174q170 71 428 98l145 -102q-59 -271 -59 -418q0 -136 86 -213q85 -76 237 -76q21 0 21 -20zM989 -870l-153 151
l-154 -151l-156 155l154 154l156 -150l153 150l156 -154z" />
    <glyph glyph-name="uniFC6A" unicode="&#xfc6a;" horiz-adv-x="1234" arabic-form="final" 
d="M1255 164v-141q0 -11 -6 -17t-14 -6q-184 0 -278 101q-95 103 -95 294q0 164 35 357q-233 -116 -442 -150q32 -317 32 -549q0 -158 -66 -269t-183 -168q-115 -56 -269 -56v168q151 0 252 87t101 246q0 135 -13 294q-10 126 -43 378l21 25q185 16 326 60q137 42 298 122
l162 -90q-49 -215 -49 -385q0 -145 50 -213t161 -68q20 0 20 -20zM930 -313l-154 -156l-158 156l154 153z" />
    <glyph glyph-name="uniFC6B" unicode="&#xfc6b;" horiz-adv-x="1234" arabic-form="final" 
d="M1255 164v-141q0 -11 -6 -17t-14 -6q-184 0 -278 101q-95 103 -95 294q0 164 35 357q-233 -116 -442 -150q32 -317 32 -549q0 -158 -66 -269t-183 -168q-115 -56 -269 -56v168q151 0 252 87t101 246q0 135 -13 294q-10 126 -43 378l21 25q185 16 326 60q137 42 298 122
l162 -90q-49 -215 -49 -385q0 -145 50 -213t161 -68q20 0 20 -20zM451 1135l-154 -154l-158 154l154 155zM930 -313l-154 -156l-158 156l154 153z" />
    <glyph glyph-name="uniFC6D" unicode="&#xfc6d;" horiz-adv-x="1986" arabic-form="final" 
d="M655 809l-157 154l153 155l158 -155zM2001 164v-141q0 -11 -6 -17t-15 -6q-183 0 -277 101q-95 103 -95 294q0 159 37 357q-216 -110 -443 -148q29 -229 29 -401q0 -291 -148 -468q-147 -175 -432 -175q-267 0 -413 137t-146 420q0 196 92 467l148 -39q-76 -207 -76 -398
q0 -201 100 -302t312 -101q204 0 298 111q95 112 95 348q0 98 -9 192q-5 52 -34 297l-6 41l20 25q186 16 327 60q137 42 298 122l162 -90q-24 -104 -35 -202q-12 -104 -12 -183q0 -146 49 -213q50 -68 159 -68q21 0 21 -20zM1659 -313l-154 -156l-157 156l153 153z" />
    <glyph glyph-name="uniFC6E" unicode="&#xfc6e;" horiz-adv-x="1851" arabic-form="final" 
d="M1872 164v-141q0 -11 -6 -17t-15 -6q-221 0 -350 117t-129 334q0 140 41 354q-172 -10 -301 -54q-130 -44 -199 -107t-69 -130q0 -50 33 -88q31 -35 131 -102l90 -60q114 -73 162 -146q49 -74 49 -165q0 -117 -72 -206q-72 -88 -206 -138q-132 -49 -318 -49
q-299 0 -465 138t-166 419q0 196 92 467l148 -39q-76 -207 -76 -398q0 -205 130 -305t404 -100q164 0 264 54q101 54 101 136q0 40 -37 80q-42 45 -121 99l-94 63q-115 78 -166 152q-49 71 -49 170q0 124 82 225q83 103 254 174q170 71 428 98l145 -102q-59 -271 -59 -418
q0 -136 86 -213q85 -76 237 -76q21 0 21 -20zM1563 -160l157 -153l-153 -156l-158 156z" />
    <glyph glyph-name="uniFC6F" unicode="&#xfc6f;" horiz-adv-x="1851" arabic-form="final" 
d="M1872 164v-141q0 -11 -6 -17t-15 -6q-221 0 -350 117t-129 334q0 140 41 354q-172 -10 -301 -54q-130 -44 -199 -107t-69 -130q0 -50 33 -88q31 -35 131 -102l90 -60q114 -73 162 -146q49 -74 49 -165q0 -117 -72 -206q-72 -88 -206 -138q-132 -49 -318 -49
q-299 0 -465 138t-166 419q0 196 92 467l148 -39q-76 -207 -76 -398q0 -205 130 -305t404 -100q164 0 264 54q101 54 101 136q0 40 -37 80q-42 45 -121 99l-94 63q-115 78 -166 152q-49 71 -49 170q0 124 82 225q83 103 254 174q170 71 428 98l145 -102q-59 -271 -59 -418
q0 -136 86 -213q85 -76 237 -76q21 0 21 -20zM1563 -160l157 -153l-153 -156l-158 156zM989 -870l-153 151l-154 -151l-156 155l154 154l156 -150l153 150l156 -154z" />
    <glyph glyph-name="uniFC70" unicode="&#xfc70;" horiz-adv-x="1234" arabic-form="final" 
d="M1255 164v-141q0 -11 -6 -17t-14 -6q-184 0 -278 101q-95 103 -95 294q0 164 35 357q-233 -116 -442 -150q32 -317 32 -549q0 -158 -66 -269t-183 -168q-115 -56 -269 -56v168q151 0 252 87t101 246q0 135 -13 294q-10 126 -43 378l21 25q185 16 326 60q137 42 298 122
l162 -90q-49 -215 -49 -385q0 -145 50 -213t161 -68q20 0 20 -20zM983 1137l-154 149l-153 -149l-156 153l154 156l155 -152l154 152l156 -156z" />
    <glyph glyph-name="uniFC71" unicode="&#xfc71;" horiz-adv-x="1234" arabic-form="final" 
d="M1255 164v-141q0 -11 -6 -17t-14 -6q-184 0 -278 101q-95 103 -95 294q0 164 35 357q-233 -116 -442 -150q32 -317 32 -549q0 -158 -66 -269t-183 -168q-115 -56 -269 -56v168q151 0 252 87t101 246q0 135 -13 294q-10 126 -43 378l21 25q185 16 326 60q137 42 298 122
l162 -90q-49 -215 -49 -385q0 -145 50 -213t161 -68q20 0 20 -20zM451 1135l-154 -154l-158 154l154 155zM1092 1137l-154 149l-154 -149l-155 153l153 156l156 -152l154 152l155 -156z" />
    <glyph glyph-name="uniFC73" unicode="&#xfc73;" horiz-adv-x="1986" arabic-form="final" 
d="M655 809l-157 154l153 155l158 -155zM2001 164v-141q0 -11 -6 -17t-15 -6q-183 0 -277 101q-95 103 -95 294q0 159 37 357q-216 -110 -443 -148q29 -229 29 -401q0 -291 -148 -468q-147 -175 -432 -175q-267 0 -413 137t-146 420q0 196 92 467l148 -39q-76 -207 -76 -398
q0 -201 100 -302t312 -101q204 0 298 111q95 112 95 348q0 98 -9 192q-5 52 -34 297l-6 41l20 25q186 16 327 60q137 42 298 122l162 -90q-24 -104 -35 -202q-12 -104 -12 -183q0 -146 49 -213q50 -68 159 -68q21 0 21 -20zM1657 1139l-154 149l-153 -149l-156 153l154 156
l155 -152l154 152l155 -156z" />
    <glyph glyph-name="uniFC74" unicode="&#xfc74;" horiz-adv-x="1851" arabic-form="final" 
d="M1202 1204l-155 154l153 155l156 -151l153 151l156 -155l-156 -154l-153 150zM1872 164v-141q0 -11 -6 -17t-15 -6q-221 0 -350 117t-129 334q0 140 41 354q-172 -10 -301 -54q-130 -44 -199 -107t-69 -130q0 -50 33 -88q31 -35 131 -102l90 -60q114 -73 162 -146
q49 -74 49 -165q0 -117 -72 -206q-72 -88 -206 -138q-132 -49 -318 -49q-299 0 -465 138t-166 419q0 196 92 467l148 -39q-76 -207 -76 -398q0 -205 130 -305t404 -100q164 0 264 54q101 54 101 136q0 40 -37 80q-42 45 -121 99l-94 63q-115 78 -166 152q-49 71 -49 170
q0 124 82 225q83 103 254 174q170 71 428 98l145 -102q-59 -271 -59 -418q0 -136 86 -213q85 -76 237 -76q21 0 21 -20z" />
    <glyph glyph-name="uniFC75" unicode="&#xfc75;" horiz-adv-x="1851" arabic-form="final" 
d="M1202 1204l-155 154l153 155l156 -151l153 151l156 -155l-156 -154l-153 150zM1872 164v-141q0 -11 -6 -17t-15 -6q-221 0 -350 117t-129 334q0 140 41 354q-172 -10 -301 -54q-130 -44 -199 -107t-69 -130q0 -50 33 -88q31 -35 131 -102l90 -60q114 -73 162 -146
q49 -74 49 -165q0 -117 -72 -206q-72 -88 -206 -138q-132 -49 -318 -49q-299 0 -465 138t-166 419q0 196 92 467l148 -39q-76 -207 -76 -398q0 -205 130 -305t404 -100q164 0 264 54q101 54 101 136q0 40 -37 80q-42 45 -121 99l-94 63q-115 78 -166 152q-49 71 -49 170
q0 124 82 225q83 103 254 174q170 71 428 98l145 -102q-59 -271 -59 -418q0 -136 86 -213q85 -76 237 -76q21 0 21 -20zM991 -870l-153 151l-154 -151l-156 155l154 154l156 -150l153 150l156 -154z" />
    <glyph glyph-name="uniFC76" unicode="&#xfc76;" horiz-adv-x="1234" arabic-form="final" 
d="M1255 164v-141q0 -11 -6 -17t-14 -6q-184 0 -278 101q-95 103 -95 294q0 164 35 357q-233 -116 -442 -150q32 -317 32 -549q0 -158 -66 -269t-183 -168q-115 -56 -269 -56v168q151 0 252 87t101 246q0 135 -13 294q-10 126 -43 378l21 25q185 16 326 60q137 42 298 122
l162 -90q-49 -215 -49 -385q0 -145 50 -213t161 -68q20 0 20 -20zM950 1546l-123 -123l-125 123l123 125zM813 1298l-156 -153l-155 153l153 158zM1149 1298l-156 -153l-157 153l157 158z" />
    <glyph glyph-name="uniFC77" unicode="&#xfc77;" horiz-adv-x="1234" arabic-form="final" 
d="M1255 164v-141q0 -11 -6 -17t-14 -6q-184 0 -278 101q-95 103 -95 294q0 164 35 357q-233 -116 -442 -150q32 -317 32 -549q0 -158 -66 -269t-183 -168q-115 -56 -269 -56v168q151 0 252 87t101 246q0 135 -13 294q-10 126 -43 378l21 25q185 16 326 60q137 42 298 122
l162 -90q-49 -215 -49 -385q0 -145 50 -213t161 -68q20 0 20 -20zM451 1135l-154 -154l-158 154l154 155zM1044 1546l-122 -123l-125 123l123 125zM907 1298l-155 -153l-156 153l154 158zM1243 1298l-156 -153l-157 153l157 158z" />
    <glyph glyph-name="uniFC79" unicode="&#xfc79;" horiz-adv-x="1986" arabic-form="final" 
d="M655 809l-157 154l153 155l158 -155zM2001 164v-141q0 -11 -6 -17t-15 -6q-183 0 -277 101q-95 103 -95 294q0 159 37 357q-216 -110 -443 -148q29 -229 29 -401q0 -291 -148 -468q-147 -175 -432 -175q-267 0 -413 137t-146 420q0 196 92 467l148 -39q-76 -207 -76 -398
q0 -201 100 -302t312 -101q204 0 298 111q95 112 95 348q0 98 -9 192q-5 52 -34 297l-6 41l20 25q186 16 327 60q137 42 298 122l162 -90q-24 -104 -35 -202q-12 -104 -12 -183q0 -146 49 -213q50 -68 159 -68q21 0 21 -20zM1626 1520l-123 -123l-125 123l123 125z
M1489 1272l-156 -154l-155 154l153 158zM1825 1272l-156 -154l-158 154l158 158z" />
    <glyph glyph-name="uniFC7A" unicode="&#xfc7a;" horiz-adv-x="1851" arabic-form="final" 
d="M1346 1403l-125 123l122 125l125 -125zM1176 1124l-156 154l154 158l157 -158zM1354 1278l157 158l156 -158l-156 -154zM1872 164v-141q0 -11 -6 -17t-15 -6q-221 0 -350 117t-129 334q0 140 41 354q-172 -10 -301 -54q-130 -44 -199 -107t-69 -130q0 -50 33 -88
q31 -35 131 -102l90 -60q114 -73 162 -146q49 -74 49 -165q0 -117 -72 -206q-72 -88 -206 -138q-132 -49 -318 -49q-299 0 -465 138t-166 419q0 196 92 467l148 -39q-76 -207 -76 -398q0 -205 130 -305t404 -100q164 0 264 54q101 54 101 136q0 40 -37 80q-42 45 -121 99
l-94 63q-115 78 -166 152q-49 71 -49 170q0 124 82 225q83 103 254 174q170 71 428 98l145 -102q-59 -271 -59 -418q0 -136 86 -213q85 -76 237 -76q21 0 21 -20z" />
    <glyph glyph-name="uniFC7B" unicode="&#xfc7b;" horiz-adv-x="1851" arabic-form="final" 
d="M1346 1403l-125 123l122 125l125 -125zM1176 1124l-156 154l154 158l157 -158zM1354 1278l157 158l156 -158l-156 -154zM1872 164v-141q0 -11 -6 -17t-15 -6q-221 0 -350 117t-129 334q0 140 41 354q-172 -10 -301 -54q-130 -44 -199 -107t-69 -130q0 -50 33 -88
q31 -35 131 -102l90 -60q114 -73 162 -146q49 -74 49 -165q0 -117 -72 -206q-72 -88 -206 -138q-132 -49 -318 -49q-299 0 -465 138t-166 419q0 196 92 467l148 -39q-76 -207 -76 -398q0 -205 130 -305t404 -100q164 0 264 54q101 54 101 136q0 40 -37 80q-42 45 -121 99
l-94 63q-115 78 -166 152q-49 71 -49 170q0 124 82 225q83 103 254 174q170 71 428 98l145 -102q-59 -271 -59 -418q0 -136 86 -213q85 -76 237 -76q21 0 21 -20zM989 -870l-153 151l-154 -151l-156 155l154 154l156 -150l153 150l156 -154z" />
    <glyph glyph-name="uniFC83" unicode="&#xfc83;" horiz-adv-x="3047" arabic-form="final" 
d="M3068 164v-141q0 -11 -6 -17t-15 -6q-93 0 -175 33q-87 35 -169 104q-67 -64 -178 -101q-108 -36 -244 -36h-454q-217 0 -336 116t-119 335q0 140 41 354q-172 -10 -301 -54q-130 -44 -199 -107t-69 -130q0 -50 33 -88q31 -35 131 -102l90 -60q114 -73 162 -146
q49 -74 49 -165q0 -117 -72 -206q-72 -88 -206 -138q-132 -49 -318 -49q-299 0 -465 138t-166 419q0 196 92 467l148 -39q-76 -207 -76 -398q0 -205 130 -305t404 -100q164 0 264 54q101 54 101 136q0 40 -37 80q-42 45 -121 99l-94 63q-115 78 -166 152q-49 71 -49 170
q0 124 82 225q83 103 254 174q170 71 428 98l145 -114q-59 -274 -59 -406q0 -142 76 -215q77 -74 225 -74h469q150 0 250 62q98 61 98 155q0 84 -75 153q-74 68 -255 151l-491 219v141l749 573l109 -135l-635 -479l354 -158q209 -92 314 -204q104 -111 104 -252
q0 -80 -31 -154q62 -41 122 -56q64 -16 136 -16q21 0 21 -20z" />
    <glyph glyph-name="uniFC84" unicode="&#xfc84;" horiz-adv-x="3047" arabic-form="final" 
d="M3068 164v-141q0 -11 -6 -17t-15 -6q-93 0 -175 33q-87 35 -169 104q-67 -64 -178 -101q-108 -36 -244 -36h-454q-217 0 -336 116t-119 335q0 140 41 354q-172 -10 -301 -54q-130 -44 -199 -107t-69 -130q0 -50 33 -88q31 -35 131 -102l90 -60q114 -73 162 -146
q49 -74 49 -165q0 -117 -72 -206q-72 -88 -206 -138q-132 -49 -318 -49q-299 0 -465 138t-166 419q0 196 92 467l148 -39q-76 -207 -76 -398q0 -205 130 -305t404 -100q164 0 264 54q101 54 101 136q0 40 -37 80q-42 45 -121 99l-94 63q-115 78 -166 152q-49 71 -49 170
q0 124 82 225q83 103 254 174q170 71 428 98l145 -114q-59 -274 -59 -406q0 -142 76 -215q77 -74 225 -74h469q150 0 250 62q98 61 98 155q0 84 -75 153q-74 68 -255 151l-491 219v141l749 573l109 -135l-635 -479l354 -158q209 -92 314 -204q104 -111 104 -252
q0 -80 -31 -154q62 -41 122 -56q64 -16 136 -16q21 0 21 -20zM989 -870l-153 151l-154 -151l-156 155l154 154l156 -150l153 150l156 -154z" />
    <glyph glyph-name="uniFC87" unicode="&#xfc87;" horiz-adv-x="1892" arabic-form="final" 
d="M1911 164v-141q0 -11 -6 -17t-15 -6q-231 0 -338 131q-52 -48 -83 -69q-43 -29 -89 -44q-92 -225 -274 -342q-181 -116 -444 -116q-278 0 -429 142t-151 415q0 196 92 467l148 -39q-76 -207 -76 -398q0 -206 112 -305q111 -98 342 -98q166 0 298 63t206 193h-270l31 184
h276q148 0 246 82q-14 52 -14 125v1094h174v-1088q0 -110 57 -161q58 -52 186 -52q21 0 21 -20zM946 -850l-153 152l-154 -152l-156 156l154 153l156 -149l153 149l156 -153z" />
    <glyph glyph-name="uniFC8A" unicode="&#xfc8a;" horiz-adv-x="1234" arabic-form="final" 
d="M1255 164v-141q0 -11 -6 -17t-14 -6q-184 0 -278 101q-95 103 -95 294q0 164 35 357q-233 -116 -442 -150q32 -317 32 -549q0 -158 -66 -269t-183 -168q-115 -56 -269 -56v168q151 0 252 87t101 246q0 135 -13 294q-10 126 -43 378l21 25q185 16 326 60q137 42 298 122
l162 -90q-49 -215 -49 -385q0 -145 50 -213t161 -68q20 0 20 -20zM1073 1298l-153 -153l-158 153l153 156z" />
    <glyph glyph-name="uniFC8B" unicode="&#xfc8b;" horiz-adv-x="1234" arabic-form="final" 
d="M1255 164v-141q0 -11 -6 -17t-14 -6q-184 0 -278 101q-95 103 -95 294q0 164 35 357q-233 -116 -442 -150q32 -317 32 -549q0 -158 -66 -269t-183 -168q-115 -56 -269 -56v168q151 0 252 87t101 246q0 135 -13 294q-10 126 -43 378l21 25q185 16 326 60q137 42 298 122
l162 -90q-49 -215 -49 -385q0 -145 50 -213t161 -68q20 0 20 -20zM451 1135l-154 -154l-158 154l154 155zM1073 1298l-153 -153l-158 153l153 156z" />
    <glyph glyph-name="uniFC8D" unicode="&#xfc8d;" horiz-adv-x="1986" arabic-form="final" 
d="M655 809l-157 154l153 155l158 -155zM2001 164v-141q0 -11 -6 -17t-15 -6q-183 0 -277 101q-95 103 -95 294q0 159 37 357q-216 -110 -443 -148q29 -229 29 -401q0 -291 -148 -468q-147 -175 -432 -175q-267 0 -413 137t-146 420q0 196 92 467l148 -39q-76 -207 -76 -398
q0 -201 100 -302t312 -101q204 0 298 111q95 112 95 348q0 98 -9 192q-5 52 -34 297l-6 41l20 25q186 16 327 60q137 42 298 122l162 -90q-24 -104 -35 -202q-12 -104 -12 -183q0 -146 49 -213q50 -68 159 -68q21 0 21 -20zM1827 1323l-154 -154l-157 154l153 156z" />
    <glyph glyph-name="uniFC8E" unicode="&#xfc8e;" horiz-adv-x="1851" arabic-form="final" 
d="M1440 1221l-158 153l154 156l157 -156zM1872 164v-141q0 -11 -6 -17t-15 -6q-221 0 -350 117t-129 334q0 140 41 354q-172 -10 -301 -54q-130 -44 -199 -107t-69 -130q0 -50 33 -88q31 -35 131 -102l90 -60q114 -73 162 -146q49 -74 49 -165q0 -117 -72 -206
q-72 -88 -206 -138q-132 -49 -318 -49q-299 0 -465 138t-166 419q0 196 92 467l148 -39q-76 -207 -76 -398q0 -205 130 -305t404 -100q164 0 264 54q101 54 101 136q0 40 -37 80q-42 45 -121 99l-94 63q-115 78 -166 152q-49 71 -49 170q0 124 82 225q83 103 254 174
q170 71 428 98l145 -102q-59 -271 -59 -418q0 -136 86 -213q85 -76 237 -76q21 0 21 -20z" />
    <glyph glyph-name="uniFC8F" unicode="&#xfc8f;" horiz-adv-x="1851" arabic-form="final" 
d="M1440 1221l-158 153l154 156l157 -156zM1872 164v-141q0 -11 -6 -17t-15 -6q-221 0 -350 117t-129 334q0 140 41 354q-172 -10 -301 -54q-130 -44 -199 -107t-69 -130q0 -50 33 -88q31 -35 131 -102l90 -60q114 -73 162 -146q49 -74 49 -165q0 -117 -72 -206
q-72 -88 -206 -138q-132 -49 -318 -49q-299 0 -465 138t-166 419q0 196 92 467l148 -39q-76 -207 -76 -398q0 -205 130 -305t404 -100q164 0 264 54q101 54 101 136q0 40 -37 80q-42 45 -121 99l-94 63q-115 78 -166 152q-49 71 -49 170q0 124 82 225q83 103 254 174
q170 71 428 98l145 -102q-59 -271 -59 -418q0 -136 86 -213q85 -76 237 -76q21 0 21 -20zM989 -870l-153 151l-154 -151l-156 155l154 154l156 -150l153 150l156 -154z" />
    <glyph glyph-name="uniFC91" unicode="&#xfc91;" horiz-adv-x="1234" arabic-form="final" 
d="M1255 164v-141q0 -11 -6 -17t-14 -6q-184 0 -278 101q-95 103 -95 294q0 164 35 357q-233 -116 -442 -150q32 -317 32 -549q0 -158 -66 -269t-183 -168q-115 -56 -269 -56v168q151 0 252 87t101 246q0 135 -13 294q-10 126 -43 378l21 25q185 16 326 60q137 42 298 122
l162 -90q-49 -215 -49 -385q0 -145 50 -213t161 -68q20 0 20 -20zM963 -461l-154 152l-154 -152l-155 156l153 153l156 -149l154 149l155 -153z" />
    <glyph glyph-name="uniFC92" unicode="&#xfc92;" horiz-adv-x="1234" arabic-form="final" 
d="M1255 164v-141q0 -11 -6 -17t-14 -6q-184 0 -278 101q-95 103 -95 294q0 164 35 357q-233 -116 -442 -150q32 -317 32 -549q0 -158 -66 -269t-183 -168q-115 -56 -269 -56v168q151 0 252 87t101 246q0 135 -13 294q-10 126 -43 378l21 25q185 16 326 60q137 42 298 122
l162 -90q-49 -215 -49 -385q0 -145 50 -213t161 -68q20 0 20 -20zM451 1135l-154 -154l-158 154l154 155zM963 -461l-154 152l-154 -152l-155 156l153 153l156 -149l154 149l155 -153z" />
    <glyph glyph-name="uniFC94" unicode="&#xfc94;" horiz-adv-x="1986" arabic-form="final" 
d="M655 809l-157 154l153 155l158 -155zM2001 164v-141q0 -11 -6 -17t-15 -6q-183 0 -277 101q-95 103 -95 294q0 159 37 357q-216 -110 -443 -148q29 -229 29 -401q0 -291 -148 -468q-147 -175 -432 -175q-267 0 -413 137t-146 420q0 196 92 467l148 -39q-76 -207 -76 -398
q0 -201 100 -302t312 -101q204 0 298 111q95 112 95 348q0 98 -9 192q-5 52 -34 297l-6 41l20 25q186 16 327 60q137 42 298 122l162 -90q-24 -104 -35 -202q-12 -104 -12 -183q0 -146 49 -213q50 -68 159 -68q21 0 21 -20zM1724 -461l-153 152l-154 -152l-155 156l153 153
l156 -149l153 149l156 -153z" />
    <glyph glyph-name="uniFCCC" unicode="&#xfccc;" horiz-adv-x="620" arabic-form="initial" 
d="M588 -178q-172 40 -299 137q-65 20 -150 31q-76 10 -139 10q-20 0 -20 20v142q0 10 6 16t14 6q129 0 229 -20q-18 102 -18 209v1112h174v-1350q133 -46 287 -155z" />
    <glyph glyph-name="uniFCFB" unicode="&#xfcfb;" horiz-adv-x="2998" arabic-form="isolated" 
d="M2886 387q0 -174 -110 -281q-109 -106 -288 -106q-168 0 -360 117q-53 -56 -134 -86q-84 -31 -177 -31q-207 0 -326 117t-119 334q0 140 41 354q-172 -10 -301 -54q-130 -44 -199 -107t-69 -130q0 -50 33 -88q31 -35 131 -102l90 -60q114 -73 162 -146q49 -74 49 -165
q0 -117 -72 -206q-72 -88 -206 -138q-132 -49 -318 -49q-299 0 -465 138t-166 419q0 196 92 467l148 -39q-76 -207 -76 -398q0 -205 130 -305t404 -100q164 0 264 54q101 54 101 136q0 40 -37 80q-42 45 -121 99l-94 63q-115 78 -166 152q-49 71 -49 170q0 124 82 225
q83 103 254 174q170 71 428 98l145 -102q-59 -271 -59 -418q0 -138 74 -214q74 -75 210 -75q102 0 154 27q54 28 82 84q30 60 42 163q11 95 11 300h162q0 -343 -59 -510q78 -34 137 -48q66 -16 127 -16q248 0 248 209q0 83 -14 212q-15 135 -52 388h174q62 -425 62 -606z
" />
    <glyph glyph-name="uniFCFC" unicode="&#xfcfc;" horiz-adv-x="2998" arabic-form="isolated" 
d="M2886 387q0 -174 -110 -281q-109 -106 -288 -106q-168 0 -360 117q-53 -56 -134 -86q-84 -31 -177 -31q-207 0 -326 117t-119 334q0 140 41 354q-172 -10 -301 -54q-130 -44 -199 -107t-69 -130q0 -50 33 -88q31 -35 131 -102l90 -60q114 -73 162 -146q49 -74 49 -165
q0 -117 -72 -206q-72 -88 -206 -138q-132 -49 -318 -49q-299 0 -465 138t-166 419q0 196 92 467l148 -39q-76 -207 -76 -398q0 -205 130 -305t404 -100q164 0 264 54q101 54 101 136q0 40 -37 80q-42 45 -121 99l-94 63q-115 78 -166 152q-49 71 -49 170q0 124 82 225
q83 103 254 174q170 71 428 98l145 -102q-59 -271 -59 -418q0 -138 74 -214q74 -75 210 -75q102 0 154 27q54 28 82 84q30 60 42 163q11 95 11 300h162q0 -343 -59 -510q78 -34 137 -48q66 -16 127 -16q248 0 248 209q0 83 -14 212q-15 135 -52 388h174q62 -425 62 -606z
M989 -870l-153 151l-154 -151l-156 155l154 154l156 -150l153 150l156 -154z" />
    <glyph glyph-name="uniFCFD" unicode="&#xfcfd;" horiz-adv-x="2998" arabic-form="isolated" 
d="M2886 387q0 -174 -110 -281q-109 -106 -288 -106q-168 0 -360 117q-53 -56 -134 -86q-84 -31 -177 -31q-207 0 -326 117t-119 334q0 140 41 354q-172 -10 -301 -54q-130 -44 -199 -107t-69 -130q0 -50 33 -88q31 -35 131 -102l90 -60q114 -73 162 -146q49 -74 49 -165
q0 -117 -72 -206q-72 -88 -206 -138q-132 -49 -318 -49q-299 0 -465 138t-166 419q0 196 92 467l148 -39q-76 -207 -76 -398q0 -205 130 -305t404 -100q164 0 264 54q101 54 101 136q0 40 -37 80q-42 45 -121 99l-94 63q-115 78 -166 152q-49 71 -49 170q0 124 82 225
q83 103 254 174q170 71 428 98l145 -102q-59 -271 -59 -418q0 -138 74 -214q74 -75 210 -75q102 0 154 27q54 28 82 84q30 60 42 163q11 95 11 300h162q0 -343 -59 -510q78 -34 137 -48q66 -16 127 -16q248 0 248 209q0 83 -14 212q-15 135 -52 388h174q62 -425 62 -606z
M2322 1368l-122 -123l-125 123l123 125zM2185 1120l-155 -153l-156 153l154 158zM2521 1120l-156 -153l-157 153l157 158z" />
    <glyph glyph-name="uniFCFE" unicode="&#xfcfe;" horiz-adv-x="2998" arabic-form="isolated" 
d="M2886 387q0 -174 -110 -281q-109 -106 -288 -106q-168 0 -360 117q-53 -56 -134 -86q-84 -31 -177 -31q-207 0 -326 117t-119 334q0 140 41 354q-172 -10 -301 -54q-130 -44 -199 -107t-69 -130q0 -50 33 -88q31 -35 131 -102l90 -60q114 -73 162 -146q49 -74 49 -165
q0 -117 -72 -206q-72 -88 -206 -138q-132 -49 -318 -49q-299 0 -465 138t-166 419q0 196 92 467l148 -39q-76 -207 -76 -398q0 -205 130 -305t404 -100q164 0 264 54q101 54 101 136q0 40 -37 80q-42 45 -121 99l-94 63q-115 78 -166 152q-49 71 -49 170q0 124 82 225
q83 103 254 174q170 71 428 98l145 -102q-59 -271 -59 -418q0 -138 74 -214q74 -75 210 -75q102 0 154 27q54 28 82 84q30 60 42 163q11 95 11 300h162q0 -343 -59 -510q78 -34 137 -48q66 -16 127 -16q248 0 248 209q0 83 -14 212q-15 135 -52 388h174q62 -425 62 -606z
M989 -870l-153 151l-154 -151l-156 155l154 154l156 -150l153 150l156 -154zM2306 1368l-123 -123l-125 123l123 125zM2169 1120l-156 -153l-155 153l153 158zM2505 1120l-156 -153l-158 153l158 158z" />
    <glyph glyph-name="uniFD05" unicode="&#xfd05;" horiz-adv-x="3063" arabic-form="isolated" 
d="M2761 1004q95 -55 154 -157q57 -99 57 -222q0 -189 -102 -330q-103 -142 -287 -218q-187 -77 -433 -77h-311q-223 0 -346 115q-121 114 -121 336q0 140 41 354q-172 -10 -301 -54q-130 -44 -199 -107t-69 -130q0 -50 33 -88q31 -35 131 -102l90 -60q114 -73 162 -146
q49 -74 49 -165q0 -117 -72 -206q-72 -88 -206 -138q-132 -49 -318 -49q-299 0 -465 138t-166 419q0 196 92 467l148 -39q-76 -207 -76 -398q0 -205 130 -305t404 -100q164 0 264 54q101 54 101 136q0 40 -37 80q-42 45 -121 99l-94 63q-115 78 -166 152q-49 71 -49 170
q0 124 82 225q83 103 254 174q170 71 428 98l145 -102q-36 -178 -47 -250q-12 -83 -12 -168q0 -141 57 -207q276 336 441 504q164 167 279 229t235 62q122 0 221 -57zM2478 234q151 49 235 144q83 94 83 218q0 121 -80 201t-201 80q-99 0 -195 -63t-225 -201
q-121 -129 -362 -423q38 -6 86 -6h307q199 0 352 50z" />
    <glyph glyph-name="uniFD06" unicode="&#xfd06;" horiz-adv-x="3063" arabic-form="isolated" 
d="M2761 1004q95 -55 154 -157q57 -99 57 -222q0 -189 -102 -330q-103 -142 -287 -218q-187 -77 -433 -77h-311q-223 0 -346 115q-121 114 -121 336q0 140 41 354q-172 -10 -301 -54q-130 -44 -199 -107t-69 -130q0 -50 33 -88q31 -35 131 -102l90 -60q114 -73 162 -146
q49 -74 49 -165q0 -117 -72 -206q-72 -88 -206 -138q-132 -49 -318 -49q-299 0 -465 138t-166 419q0 196 92 467l148 -39q-76 -207 -76 -398q0 -205 130 -305t404 -100q164 0 264 54q101 54 101 136q0 40 -37 80q-42 45 -121 99l-94 63q-115 78 -166 152q-49 71 -49 170
q0 124 82 225q83 103 254 174q170 71 428 98l145 -102q-36 -178 -47 -250q-12 -83 -12 -168q0 -141 57 -207q276 336 441 504q164 167 279 229t235 62q122 0 221 -57zM2478 234q151 49 235 144q83 94 83 218q0 121 -80 201t-201 80q-99 0 -195 -63t-225 -201
q-121 -129 -362 -423q38 -6 86 -6h307q199 0 352 50zM989 -870l-153 151l-154 -151l-156 155l154 154l156 -150l153 150l156 -154z" />
    <glyph glyph-name="uniFD07" unicode="&#xfd07;" horiz-adv-x="3063" arabic-form="isolated" 
d="M2761 1004q95 -55 154 -157q57 -99 57 -222q0 -189 -102 -330q-103 -142 -287 -218q-187 -77 -433 -77h-311q-223 0 -346 115q-121 114 -121 336q0 140 41 354q-172 -10 -301 -54q-130 -44 -199 -107t-69 -130q0 -50 33 -88q31 -35 131 -102l90 -60q114 -73 162 -146
q49 -74 49 -165q0 -117 -72 -206q-72 -88 -206 -138q-132 -49 -318 -49q-299 0 -465 138t-166 419q0 196 92 467l148 -39q-76 -207 -76 -398q0 -205 130 -305t404 -100q164 0 264 54q101 54 101 136q0 40 -37 80q-42 45 -121 99l-94 63q-115 78 -166 152q-49 71 -49 170
q0 124 82 225q83 103 254 174q170 71 428 98l145 -102q-36 -178 -47 -250q-12 -83 -12 -168q0 -141 57 -207q276 336 441 504q164 167 279 229t235 62q122 0 221 -57zM2478 234q151 49 235 144q83 94 83 218q0 121 -80 201t-201 80q-99 0 -195 -63t-225 -201
q-121 -129 -362 -423q38 -6 86 -6h307q199 0 352 50zM2226 1305l-153 -154l-158 154l153 155z" />
    <glyph glyph-name="uniFD08" unicode="&#xfd08;" horiz-adv-x="3063" arabic-form="isolated" 
d="M2761 1004q95 -55 154 -157q57 -99 57 -222q0 -189 -102 -330q-103 -142 -287 -218q-187 -77 -433 -77h-311q-223 0 -346 115q-121 114 -121 336q0 140 41 354q-172 -10 -301 -54q-130 -44 -199 -107t-69 -130q0 -50 33 -88q31 -35 131 -102l90 -60q114 -73 162 -146
q49 -74 49 -165q0 -117 -72 -206q-72 -88 -206 -138q-132 -49 -318 -49q-299 0 -465 138t-166 419q0 196 92 467l148 -39q-76 -207 -76 -398q0 -205 130 -305t404 -100q164 0 264 54q101 54 101 136q0 40 -37 80q-42 45 -121 99l-94 63q-115 78 -166 152q-49 71 -49 170
q0 124 82 225q83 103 254 174q170 71 428 98l145 -102q-36 -178 -47 -250q-12 -83 -12 -168q0 -141 57 -207q276 336 441 504q164 167 279 229t235 62q122 0 221 -57zM2478 234q151 49 235 144q83 94 83 218q0 121 -80 201t-201 80q-99 0 -195 -63t-225 -201
q-121 -129 -362 -423q38 -6 86 -6h307q199 0 352 50zM989 -870l-153 151l-154 -151l-156 155l154 154l156 -150l153 150l156 -154zM2226 1305l-153 -154l-158 154l153 155z" />
    <glyph glyph-name="uniFD0D" unicode="&#xfd0d;" horiz-adv-x="2494" arabic-form="isolated" 
d="M1677 1245l-125 123l123 125l125 -125zM1507 967l-155 153l153 158l158 -158zM1686 1120l157 158l156 -158l-156 -153zM2382 387q0 -174 -110 -281q-109 -106 -287 -106q-169 0 -361 117q-52 -56 -126 -86q-78 -31 -165 -31q-231 0 -350 125t-119 371q0 73 19 211
q-276 -61 -426 -119q14 -133 23 -274q7 -111 7 -261q0 -158 -66 -269t-183 -168q-115 -56 -269 -56v168q151 0 252 87t101 246q0 123 -10 261q-10 133 -31 307l129 133q263 74 501 110l27 142l162 -27q-38 -154 -57 -280q-19 -124 -19 -207q0 -159 73 -238q72 -78 226 -78
q87 0 140 27t81 84q30 60 42 163q11 95 11 300h162q0 -343 -59 -510q78 -34 137 -48q66 -16 127 -16q248 0 248 209q0 92 -13 212q-12 110 -53 388h174q62 -425 62 -606z" />
    <glyph glyph-name="uniFD0E" unicode="&#xfd0e;" horiz-adv-x="2494" arabic-form="isolated" 
d="M2382 387q0 -174 -110 -281q-109 -106 -287 -106q-169 0 -361 117q-52 -56 -126 -86q-78 -31 -165 -31q-231 0 -350 125t-119 371q0 73 19 211q-276 -61 -426 -119q14 -133 23 -274q7 -111 7 -261q0 -158 -66 -269t-183 -168q-115 -56 -269 -56v168q151 0 252 87t101 246
q0 123 -10 261q-10 133 -31 307l129 133q263 74 501 110l27 142l162 -27q-38 -154 -57 -280q-19 -124 -19 -207q0 -159 73 -238q72 -78 226 -78q87 0 140 27t81 84q30 60 42 163q11 95 11 300h162q0 -343 -59 -510q78 -34 137 -48q66 -16 127 -16q248 0 248 209
q0 92 -13 212q-12 110 -53 388h174q62 -425 62 -606z" />
    <glyph glyph-name="uniFD0F" unicode="&#xfd0f;" horiz-adv-x="2605" arabic-form="isolated" 
d="M2302 1004q97 -56 155 -157q56 -97 56 -222q0 -190 -101 -330q-103 -142 -288 -218q-187 -77 -432 -77h-246q-582 0 -582 496q0 73 19 211q-276 -61 -426 -119q14 -133 23 -274q7 -111 7 -261q0 -158 -66 -269t-183 -168q-115 -56 -269 -56v168q151 0 252 87t101 246
q0 123 -10 261q-10 133 -31 307l129 133q263 74 501 110l27 142l162 -27q-38 -154 -57 -280q-19 -124 -19 -207q0 -85 23 -146q22 -58 73 -96q282 341 446 508q166 169 280 232t235 63q122 0 221 -57zM2019 234q151 49 235 144q83 94 83 218q0 121 -80 201t-201 80
q-97 0 -194 -62q-96 -62 -223 -199q-125 -136 -361 -421q80 -11 154 -11h235q199 0 352 50z" />
    <glyph glyph-name="uniFD10" unicode="&#xfd10;" horiz-adv-x="2605" arabic-form="isolated" 
d="M2302 1004q97 -56 155 -157q56 -97 56 -222q0 -190 -101 -330q-103 -142 -288 -218q-187 -77 -432 -77h-246q-582 0 -582 496q0 73 19 211q-276 -61 -426 -119q14 -133 23 -274q7 -111 7 -261q0 -158 -66 -269t-183 -168q-115 -56 -269 -56v168q151 0 252 87t101 246
q0 123 -10 261q-10 133 -31 307l129 133q263 74 501 110l27 142l162 -27q-38 -154 -57 -280q-19 -124 -19 -207q0 -85 23 -146q22 -58 73 -96q282 341 446 508q166 169 280 232t235 63q122 0 221 -57zM2019 234q151 49 235 144q83 94 83 218q0 121 -80 201t-201 80
q-97 0 -194 -62q-96 -62 -223 -199q-125 -136 -361 -421q80 -11 154 -11h235q199 0 352 50zM1712 1282l-153 -154l-158 154l153 156z" />
    <glyph glyph-name="uniFD17" unicode="&#xfd17;" horiz-adv-x="3082" arabic-form="final" 
d="M3107 164v-141q0 -11 -6 -17t-15 -6q-92 0 -175 33q-85 34 -165 104q-50 -64 -129 -101q-78 -36 -174 -36q-150 0 -327 104q-51 -49 -131 -77q-78 -27 -168 -27q-207 0 -326 117t-119 334q0 140 41 354q-172 -10 -301 -54q-130 -44 -199 -107t-69 -130q0 -50 33 -88
q31 -35 131 -102l90 -60q114 -73 162 -146q49 -74 49 -165q0 -117 -72 -206q-72 -88 -206 -138q-132 -49 -318 -49q-299 0 -465 138t-166 419q0 196 92 467l148 -39q-76 -207 -76 -398q0 -205 130 -305t404 -100q164 0 264 54q101 54 101 136q0 40 -37 80q-42 45 -121 99
l-94 63q-115 78 -166 152q-49 71 -49 170q0 124 82 225q83 103 254 174q170 71 428 98l145 -102q-59 -271 -59 -418q0 -138 74 -214q74 -75 210 -75q102 0 154 27q54 28 82 84q30 60 42 163q11 95 11 300h162q0 -350 -63 -522q58 -25 118 -38q65 -14 115 -14q87 0 137 27
t78 84q30 60 42 163q11 95 11 300v143h162v-143q0 -322 -53 -490q70 -47 133 -65q66 -19 143 -19q21 0 21 -20z" />
    <glyph glyph-name="uniFD18" unicode="&#xfd18;" horiz-adv-x="3082" arabic-form="final" 
d="M3107 164v-141q0 -11 -6 -17t-15 -6q-92 0 -175 33q-85 34 -165 104q-50 -64 -129 -101q-78 -36 -174 -36q-150 0 -327 104q-51 -49 -131 -77q-78 -27 -168 -27q-207 0 -326 117t-119 334q0 140 41 354q-172 -10 -301 -54q-130 -44 -199 -107t-69 -130q0 -50 33 -88
q31 -35 131 -102l90 -60q114 -73 162 -146q49 -74 49 -165q0 -117 -72 -206q-72 -88 -206 -138q-132 -49 -318 -49q-299 0 -465 138t-166 419q0 196 92 467l148 -39q-76 -207 -76 -398q0 -205 130 -305t404 -100q164 0 264 54q101 54 101 136q0 40 -37 80q-42 45 -121 99
l-94 63q-115 78 -166 152q-49 71 -49 170q0 124 82 225q83 103 254 174q170 71 428 98l145 -102q-59 -271 -59 -418q0 -138 74 -214q74 -75 210 -75q102 0 154 27q54 28 82 84q30 60 42 163q11 95 11 300h162q0 -350 -63 -522q58 -25 118 -38q65 -14 115 -14q87 0 137 27
t78 84q30 60 42 163q11 95 11 300v143h162v-143q0 -322 -53 -490q70 -47 133 -65q66 -19 143 -19q21 0 21 -20zM989 -870l-153 151l-154 -151l-156 155l154 154l156 -150l153 150l156 -154z" />
    <glyph glyph-name="uniFD19" unicode="&#xfd19;" horiz-adv-x="3082" arabic-form="final" 
d="M3107 164v-141q0 -11 -6 -17t-15 -6q-92 0 -175 33q-85 34 -165 104q-50 -64 -129 -101q-78 -36 -174 -36q-150 0 -327 104q-51 -49 -131 -77q-78 -27 -168 -27q-207 0 -326 117t-119 334q0 140 41 354q-172 -10 -301 -54q-130 -44 -199 -107t-69 -130q0 -50 33 -88
q31 -35 131 -102l90 -60q114 -73 162 -146q49 -74 49 -165q0 -117 -72 -206q-72 -88 -206 -138q-132 -49 -318 -49q-299 0 -465 138t-166 419q0 196 92 467l148 -39q-76 -207 -76 -398q0 -205 130 -305t404 -100q164 0 264 54q101 54 101 136q0 40 -37 80q-42 45 -121 99
l-94 63q-115 78 -166 152q-49 71 -49 170q0 124 82 225q83 103 254 174q170 71 428 98l145 -102q-59 -271 -59 -418q0 -138 74 -214q74 -75 210 -75q102 0 154 27q54 28 82 84q30 60 42 163q11 95 11 300h162q0 -350 -63 -522q58 -25 118 -38q65 -14 115 -14q87 0 137 27
t78 84q30 60 42 163q11 95 11 300v143h162v-143q0 -322 -53 -490q70 -47 133 -65q66 -19 143 -19q21 0 21 -20zM2290 1368l-123 -123l-125 123l123 125zM2152 1120l-155 -153l-156 153l154 158zM2488 1120l-155 -153l-158 153l158 158z" />
    <glyph glyph-name="uniFD1A" unicode="&#xfd1a;" horiz-adv-x="3082" arabic-form="final" 
d="M3107 164v-141q0 -11 -6 -17t-15 -6q-92 0 -175 33q-85 34 -165 104q-50 -64 -129 -101q-78 -36 -174 -36q-150 0 -327 104q-51 -49 -131 -77q-78 -27 -168 -27q-207 0 -326 117t-119 334q0 140 41 354q-172 -10 -301 -54q-130 -44 -199 -107t-69 -130q0 -50 33 -88
q31 -35 131 -102l90 -60q114 -73 162 -146q49 -74 49 -165q0 -117 -72 -206q-72 -88 -206 -138q-132 -49 -318 -49q-299 0 -465 138t-166 419q0 196 92 467l148 -39q-76 -207 -76 -398q0 -205 130 -305t404 -100q164 0 264 54q101 54 101 136q0 40 -37 80q-42 45 -121 99
l-94 63q-115 78 -166 152q-49 71 -49 170q0 124 82 225q83 103 254 174q170 71 428 98l145 -102q-59 -271 -59 -418q0 -138 74 -214q74 -75 210 -75q102 0 154 27q54 28 82 84q30 60 42 163q11 95 11 300h162q0 -350 -63 -522q58 -25 118 -38q65 -14 115 -14q87 0 137 27
t78 84q30 60 42 163q11 95 11 300v143h162v-143q0 -322 -53 -490q70 -47 133 -65q66 -19 143 -19q21 0 21 -20zM989 -870l-153 151l-154 -151l-156 155l154 154l156 -150l153 150l156 -154zM2284 1368l-123 -123l-125 123l123 125zM2146 1120l-155 -153l-156 153l154 158z
M2482 1120l-155 -153l-158 153l158 158z" />
    <glyph glyph-name="uniFD21" unicode="&#xfd21;" horiz-adv-x="3106" arabic-form="final" 
d="M3127 164v-141q0 -11 -6 -17t-14 -6q-100 0 -190 38q-88 37 -181 124q-108 -78 -258 -120t-328 -42h-311q-223 0 -346 115q-121 114 -121 336q0 140 41 354q-172 -10 -301 -54q-130 -44 -199 -107t-69 -130q0 -50 33 -88q31 -35 131 -102l90 -60q114 -73 162 -146
q49 -74 49 -165q0 -117 -72 -206q-72 -88 -206 -138q-132 -49 -318 -49q-299 0 -465 138t-166 419q0 196 92 467l148 -39q-76 -207 -76 -398q0 -205 130 -305t404 -100q164 0 264 54q101 54 101 136q0 40 -37 80q-42 45 -121 99l-94 63q-115 78 -166 152q-49 71 -49 170
q0 124 82 225q83 103 254 174q170 71 428 98l145 -102q-36 -178 -47 -250q-12 -83 -12 -168q0 -141 57 -207q276 336 441 504q164 167 279 229t235 62q122 0 221 -57q95 -55 154 -157q57 -99 57 -222q0 -213 -129 -365q61 -39 125 -58q61 -18 139 -18q20 0 20 -20zM2478 234
q151 49 235 144q83 94 83 218q0 121 -80 201t-201 80q-99 0 -195 -63t-225 -201q-121 -129 -362 -423q38 -6 86 -6h307q199 0 352 50z" />
    <glyph glyph-name="uniFD22" unicode="&#xfd22;" horiz-adv-x="3106" arabic-form="final" 
d="M3127 164v-141q0 -11 -6 -17t-14 -6q-100 0 -190 38q-88 37 -181 124q-108 -78 -258 -120t-328 -42h-311q-223 0 -346 115q-121 114 -121 336q0 140 41 354q-172 -10 -301 -54q-130 -44 -199 -107t-69 -130q0 -50 33 -88q31 -35 131 -102l90 -60q114 -73 162 -146
q49 -74 49 -165q0 -117 -72 -206q-72 -88 -206 -138q-132 -49 -318 -49q-299 0 -465 138t-166 419q0 196 92 467l148 -39q-76 -207 -76 -398q0 -205 130 -305t404 -100q164 0 264 54q101 54 101 136q0 40 -37 80q-42 45 -121 99l-94 63q-115 78 -166 152q-49 71 -49 170
q0 124 82 225q83 103 254 174q170 71 428 98l145 -102q-36 -178 -47 -250q-12 -83 -12 -168q0 -141 57 -207q276 336 441 504q164 167 279 229t235 62q122 0 221 -57q95 -55 154 -157q57 -99 57 -222q0 -213 -129 -365q61 -39 125 -58q61 -18 139 -18q20 0 20 -20zM2478 234
q151 49 235 144q83 94 83 218q0 121 -80 201t-201 80q-99 0 -195 -63t-225 -201q-121 -129 -362 -423q38 -6 86 -6h307q199 0 352 50zM989 -870l-153 151l-154 -151l-156 155l154 154l156 -150l153 150l156 -154z" />
    <glyph glyph-name="uniFD23" unicode="&#xfd23;" horiz-adv-x="3106" arabic-form="final" 
d="M3127 164v-141q0 -11 -6 -17t-14 -6q-100 0 -190 38q-88 37 -181 124q-108 -78 -258 -120t-328 -42h-311q-223 0 -346 115q-121 114 -121 336q0 140 41 354q-172 -10 -301 -54q-130 -44 -199 -107t-69 -130q0 -50 33 -88q31 -35 131 -102l90 -60q114 -73 162 -146
q49 -74 49 -165q0 -117 -72 -206q-72 -88 -206 -138q-132 -49 -318 -49q-299 0 -465 138t-166 419q0 196 92 467l148 -39q-76 -207 -76 -398q0 -205 130 -305t404 -100q164 0 264 54q101 54 101 136q0 40 -37 80q-42 45 -121 99l-94 63q-115 78 -166 152q-49 71 -49 170
q0 124 82 225q83 103 254 174q170 71 428 98l145 -102q-36 -178 -47 -250q-12 -83 -12 -168q0 -141 57 -207q276 336 441 504q164 167 279 229t235 62q122 0 221 -57q95 -55 154 -157q57 -99 57 -222q0 -213 -129 -365q61 -39 125 -58q61 -18 139 -18q20 0 20 -20zM2478 234
q151 49 235 144q83 94 83 218q0 121 -80 201t-201 80q-99 0 -195 -63t-225 -201q-121 -129 -362 -423q38 -6 86 -6h307q199 0 352 50zM2226 1305l-153 -154l-158 154l153 155z" />
    <glyph glyph-name="uniFD24" unicode="&#xfd24;" horiz-adv-x="3106" arabic-form="final" 
d="M3127 164v-141q0 -11 -6 -17t-14 -6q-100 0 -190 38q-88 37 -181 124q-108 -78 -258 -120t-328 -42h-311q-223 0 -346 115q-121 114 -121 336q0 140 41 354q-172 -10 -301 -54q-130 -44 -199 -107t-69 -130q0 -50 33 -88q31 -35 131 -102l90 -60q114 -73 162 -146
q49 -74 49 -165q0 -117 -72 -206q-72 -88 -206 -138q-132 -49 -318 -49q-299 0 -465 138t-166 419q0 196 92 467l148 -39q-76 -207 -76 -398q0 -205 130 -305t404 -100q164 0 264 54q101 54 101 136q0 40 -37 80q-42 45 -121 99l-94 63q-115 78 -166 152q-49 71 -49 170
q0 124 82 225q83 103 254 174q170 71 428 98l145 -102q-36 -178 -47 -250q-12 -83 -12 -168q0 -141 57 -207q276 336 441 504q164 167 279 229t235 62q122 0 221 -57q95 -55 154 -157q57 -99 57 -222q0 -213 -129 -365q61 -39 125 -58q61 -18 139 -18q20 0 20 -20zM2478 234
q151 49 235 144q83 94 83 218q0 121 -80 201t-201 80q-99 0 -195 -63t-225 -201q-121 -129 -362 -423q38 -6 86 -6h307q199 0 352 50zM989 -870l-153 151l-154 -151l-156 155l154 154l156 -150l153 150l156 -154zM2226 1305l-153 -154l-158 154l153 155z" />
    <glyph glyph-name="uniFD29" unicode="&#xfd29;" horiz-adv-x="2596" arabic-form="final" 
d="M2617 164v-141q0 -11 -6 -17t-14 -6q-93 0 -175 33q-85 34 -165 104q-50 -64 -129 -101q-78 -36 -174 -36q-153 0 -336 111q-52 -53 -124 -82q-73 -29 -161 -29q-231 0 -350 125t-119 371q0 73 19 211q-276 -61 -426 -119q14 -133 23 -274q7 -111 7 -261q0 -158 -66 -269
t-183 -168q-115 -56 -269 -56v168q151 0 252 87t101 246q0 123 -10 261q-10 133 -31 307l129 133q263 74 501 110l27 142l162 -27q-38 -154 -57 -280q-19 -124 -19 -207q0 -159 73 -238q72 -78 226 -78q87 0 140 27t81 84q30 60 42 163q11 95 11 300h162q0 -351 -61 -516
q56 -27 124 -42q74 -16 122 -16q88 0 137 27t78 84q30 60 42 163q11 95 11 300v143h162v-143q0 -319 -54 -490q69 -46 134 -65q66 -19 143 -19q20 0 20 -20zM1790 1368l-123 -123l-125 123l123 125zM1653 1120l-156 -153l-156 153l154 158zM1989 1120l-156 -153l-158 153
l158 158z" />
    <glyph glyph-name="uniFD2A" unicode="&#xfd2a;" horiz-adv-x="2596" arabic-form="final" 
d="M2617 164v-141q0 -11 -6 -17t-14 -6q-93 0 -175 33q-85 34 -165 104q-50 -64 -129 -101q-78 -36 -174 -36q-153 0 -336 111q-52 -53 -124 -82q-73 -29 -161 -29q-231 0 -350 125t-119 371q0 73 19 211q-276 -61 -426 -119q14 -133 23 -274q7 -111 7 -261q0 -158 -66 -269
t-183 -168q-115 -56 -269 -56v168q151 0 252 87t101 246q0 123 -10 261q-10 133 -31 307l129 133q263 74 501 110l27 142l162 -27q-38 -154 -57 -280q-19 -124 -19 -207q0 -159 73 -238q72 -78 226 -78q87 0 140 27t81 84q30 60 42 163q11 95 11 300h162q0 -351 -61 -516
q56 -27 124 -42q74 -16 122 -16q88 0 137 27t78 84q30 60 42 163q11 95 11 300v143h162v-143q0 -319 -54 -490q69 -46 134 -65q66 -19 143 -19q20 0 20 -20z" />
    <glyph glyph-name="uniFD2B" unicode="&#xfd2b;" horiz-adv-x="2635" arabic-form="final" 
d="M2656 164v-141q0 -11 -6 -17t-14 -6q-97 0 -187 38q-88 37 -178 120q-107 -76 -256 -117t-323 -41h-246q-582 0 -582 496q0 73 19 211q-276 -61 -426 -119q14 -133 23 -274q7 -111 7 -261q0 -158 -66 -269t-183 -168q-115 -56 -269 -56v168q151 0 252 87t101 246
q0 123 -10 261q-10 133 -31 307l129 133q263 74 501 110l27 142l162 -27q-38 -154 -57 -280q-19 -124 -19 -207q0 -85 23 -146q22 -58 73 -96q282 341 446 508q166 169 280 232t235 63q122 0 221 -57q97 -56 155 -157q56 -97 56 -222q0 -218 -133 -369q60 -38 121 -55
q62 -17 135 -17q20 0 20 -20zM2019 234q151 49 235 144q83 94 83 218q0 121 -80 201t-201 80q-97 0 -194 -62q-96 -62 -223 -199q-125 -136 -361 -421q80 -11 154 -11h235q199 0 352 50z" />
    <glyph glyph-name="uniFD2C" unicode="&#xfd2c;" horiz-adv-x="2635" arabic-form="final" 
d="M2656 164v-141q0 -11 -6 -17t-14 -6q-97 0 -187 38q-88 37 -178 120q-107 -76 -256 -117t-323 -41h-246q-582 0 -582 496q0 73 19 211q-276 -61 -426 -119q14 -133 23 -274q7 -111 7 -261q0 -158 -66 -269t-183 -168q-115 -56 -269 -56v168q151 0 252 87t101 246
q0 123 -10 261q-10 133 -31 307l129 133q263 74 501 110l27 142l162 -27q-38 -154 -57 -280q-19 -124 -19 -207q0 -85 23 -146q22 -58 73 -96q282 341 446 508q166 169 280 232t235 63q122 0 221 -57q97 -56 155 -157q56 -97 56 -222q0 -218 -133 -369q60 -38 121 -55
q62 -17 135 -17q20 0 20 -20zM2019 234q151 49 235 144q83 94 83 218q0 121 -80 201t-201 80q-97 0 -194 -62q-96 -62 -223 -199q-125 -136 -361 -421q80 -11 154 -11h235q199 0 352 50zM1712 1282l-153 -154l-158 154l153 156z" />
    <glyph glyph-name="uniFE82" unicode="&#x622;" horiz-adv-x="591" arabic-form="final" 
d="M348 397q0 -109 58 -161t186 -52q20 0 20 -20v-141q0 -11 -6 -17t-14 -6q-208 0 -312 103q-106 104 -106 288v838h174v-832zM178 1535q18 -6 72 -28q78 -39 129 -39q35 0 84 15q50 15 80 39l-2 -136q-68 -51 -158 -51q-28 0 -58 10q-37 12 -69 29q-49 23 -61 28
q-24 9 -52 9q-41 0 -67 -20q-27 -21 -33 -60h-113q0 91 51 153q49 60 138 60q31 0 59 -9z" />
    <glyph glyph-name="uniFE84" unicode="&#x623;" horiz-adv-x="591" arabic-form="final" 
d="M348 397q0 -109 58 -161t186 -52q20 0 20 -20v-141q0 -11 -6 -17t-14 -6q-208 0 -312 103q-106 104 -106 288v838h174v-832zM522 1464l-37 -123h-331q-70 0 -154 -24v119q45 15 78 22q29 6 67 6q-49 49 -49 117q0 79 56 132q55 52 137 52q64 0 155 -41v-118
q-76 30 -129 30q-45 0 -73 -24q-29 -24 -29 -64q0 -34 28 -59t68 -25h213z" />
    <glyph glyph-name="uniFE86" unicode="&#x624;" horiz-adv-x="1087" arabic-form="final" 
d="M1108 164v-141q0 -11 -6 -17t-15 -6h-126q-23 -209 -202 -325q-178 -115 -513 -115v168q241 0 379 71q139 72 168 201h-168q-248 0 -391 125q-142 124 -142 350q0 139 58 255q57 113 159 178q103 65 234 65q176 0 284 -118q109 -120 121 -323q10 -234 15 -348h124
q21 0 21 -20zM361 261q95 -77 276 -77h160l-15 224q-2 19 -8 104q-7 134 -72 206q-63 70 -170 70q-118 0 -192 -86t-74 -219q0 -145 95 -222zM784 1315l-45 -150h-256q-56 0 -99 -7q-49 -8 -118 -28v144q81 31 123 35q-45 47 -45 112q0 84 58 141q57 56 157 56q72 0 150 -39
v-137q-82 26 -140 26q-44 0 -70 -20q-28 -22 -28 -55q0 -37 34 -58q33 -20 91 -20h188z" />
    <glyph glyph-name="uniFE88" unicode="&#x625;" horiz-adv-x="591" arabic-form="final" 
d="M348 397q0 -109 58 -161t186 -52q20 0 20 -20v-141q0 -11 -6 -17t-14 -6q-208 0 -312 103q-106 104 -106 288v1094h174v-1088zM524 -399l-37 -123h-331q-66 0 -154 -25v119q44 14 79 22q31 7 64 7q-49 49 -49 116q0 80 56 131q57 52 137 52q71 0 155 -39v-119
q-87 31 -129 31q-43 0 -73 -25q-29 -24 -29 -63q0 -35 28 -60q27 -24 68 -24h215z" />
    <glyph glyph-name="uniFE8A" unicode="&#x626;" horiz-adv-x="1390" arabic-form="final" 
d="M1411 164v-141q0 -11 -6 -17t-14 -6h-19q-95 -219 -274 -329q-180 -111 -436 -111q-278 0 -429 142t-151 415q0 196 92 467l148 -39q-76 -207 -76 -398q0 -206 112 -305q111 -98 342 -98q174 0 307 69q134 69 207 203q-81 15 -221 54v174q141 -32 239 -48q75 -12 159 -12
q20 0 20 -20zM1260 639l-46 -150h-256q-56 0 -99 -7q-57 -9 -118 -27v143q81 31 123 35q-45 46 -45 112q0 84 59 141q57 56 156 56q72 0 150 -39v-137q-86 27 -140 27q-43 0 -70 -21q-28 -22 -28 -55q0 -37 34 -58q33 -20 91 -20h189z" />
    <glyph glyph-name="uniFE8B" unicode="&#x626;" horiz-adv-x="681" arabic-form="initial" 
d="M563 625q15 -133 15 -234q0 -184 -106 -288q-104 -103 -312 -103h-160q-8 0 -14 6t-6 17v141q0 20 20 20h160q130 0 189 53t59 160q0 90 -15 215q-22 183 -51 381h174q29 -204 47 -368zM676 1253l-45 -149h-256q-57 0 -100 -7q-47 -8 -117 -28v143q81 31 123 35
q-45 47 -45 113q0 83 58 140q57 56 157 56q73 0 149 -38v-138q-86 27 -139 27q-44 0 -71 -21q-28 -22 -28 -55q0 -36 34 -57t91 -21h189z" />
    <glyph glyph-name="uniFE8C" unicode="&#x626;" horiz-adv-x="757" arabic-form="medial" 
d="M778 164v-141q0 -11 -6 -17t-14 -6q-199 0 -379 160q-118 -160 -379 -160q-8 0 -14 6t-6 17v141q0 20 20 20q105 0 168 27t96 82q35 60 45 157q10 93 10 308h162q0 -316 -41 -463q150 -111 318 -111q20 0 20 -20zM659 1053l-45 -150h-256q-56 0 -99 -7q-49 -8 -118 -28
v144q81 31 123 35q-45 47 -45 112q0 83 59 140t156 57q72 0 150 -39v-137q-82 26 -140 26q-44 0 -70 -20q-28 -22 -28 -56q0 -36 34 -57q33 -20 91 -20h188z" />
    <glyph glyph-name="uniFE8E" unicode="&#x627;" horiz-adv-x="591" arabic-form="final" 
d="M348 397q0 -109 58 -161t186 -52q20 0 20 -20v-141q0 -11 -6 -17t-14 -6q-208 0 -312 103q-106 104 -106 288v1094h174v-1088z" />
    <glyph glyph-name="uniFE90" unicode="&#x628;" horiz-adv-x="1714" arabic-form="final" 
d="M1735 164v-141q0 -11 -6 -17t-15 -6q-88 0 -166 30q-77 30 -157 93q-91 -110 -254 -121l-9 -2h-526q-250 0 -385 120t-135 347q0 166 61 434l160 -27q-24 -117 -38 -212q-11 -76 -11 -158q0 -172 90 -246q91 -74 295 -74h461q152 0 207 111q29 62 41 164q12 105 12 299
h160q0 -332 -58 -504q60 -39 118 -54q62 -16 134 -16q21 0 21 -20zM1024 -303l-154 -156l-157 156l153 153z" />
    <glyph glyph-name="uniFE91" unicode="&#x628;" horiz-adv-x="530" arabic-form="initial" 
d="M403 632q15 -137 15 -241q0 -184 -106 -288q-104 -103 -312 -103q-8 0 -14 6t-6 17v141q0 20 20 20q129 0 190 53q60 53 60 160q0 95 -14 208q-16 128 -54 388h174q29 -199 47 -361zM358 -313l-153 -156l-158 156l154 153z" />
    <glyph glyph-name="uniFE92" unicode="&#x628;" horiz-adv-x="614" arabic-form="medial" 
d="M635 164v-141q0 -11 -6 -17t-15 -6q-87 0 -165 30q-79 30 -158 93q-50 -59 -126 -91t-165 -32q-8 0 -14 6t-6 17v141q0 20 20 20q152 0 207 111q29 62 41 164q12 105 12 299h160q0 -332 -58 -504q60 -39 118 -54q62 -16 134 -16q21 0 21 -20zM451 -315l-154 -156
l-158 156l154 153z" />
    <glyph glyph-name="uniFE94" unicode="&#x629;" horiz-adv-x="1097" arabic-form="final" 
d="M1118 164v-141q0 -11 -6 -17t-14 -6q-178 0 -269 102q-103 -55 -174 -77q-80 -25 -159 -25q-191 0 -302 102q-112 103 -112 279q0 124 62 244q63 121 210 217t387 129v131h174v-731q0 -94 41 -141q40 -46 142 -46q20 0 20 -20zM760 238q-19 71 -19 149v418
q-223 -34 -354 -143q-131 -108 -131 -267q0 -99 65 -155t179 -56q132 0 260 54zM887 1251l-154 150l-153 -150l-156 154l154 156l155 -152l154 152l155 -156z" />
    <glyph glyph-name="uniFE96" unicode="&#x62a;" horiz-adv-x="1714" arabic-form="final" 
d="M1735 164v-141q0 -11 -6 -17t-15 -6q-88 0 -166 30q-77 30 -157 93q-91 -110 -254 -121l-9 -2h-526q-250 0 -385 120t-135 347q0 166 61 434l160 -27q-24 -117 -38 -212q-11 -76 -11 -158q0 -172 90 -246q91 -74 295 -74h461q152 0 207 111q29 62 41 164q12 105 12 299
h160q0 -332 -58 -504q60 -39 118 -54q62 -16 134 -16q21 0 21 -20zM1069 928l-154 149l-153 -149l-156 153l154 156l155 -152l154 152l156 -156z" />
    <glyph glyph-name="uniFE97" unicode="&#x62a;" horiz-adv-x="763" arabic-form="initial" 
d="M563 625q15 -133 15 -234q0 -184 -106 -288q-104 -103 -312 -103h-160q-8 0 -14 6t-6 17v141q0 20 20 20h160q130 0 189 53t59 160q0 90 -15 215q-22 183 -51 381h174q29 -204 47 -368zM557 1151l-154 149l-153 -149l-156 154l154 155l155 -151l154 151l156 -155z" />
    <glyph glyph-name="uniFE98" unicode="&#x62a;" horiz-adv-x="757" arabic-form="medial" 
d="M778 164v-141q0 -11 -6 -17t-14 -6q-199 0 -379 160q-118 -160 -379 -160q-8 0 -14 6t-6 17v141q0 20 20 20q105 0 168 27t96 82q35 60 45 157q10 93 10 308h162q0 -316 -41 -463q150 -111 318 -111q20 0 20 -20zM551 926l-154 149l-153 -149l-156 153l154 156l155 -152
l154 152l156 -156z" />
    <glyph glyph-name="uniFE9A" unicode="&#x62b;" horiz-adv-x="1714" arabic-form="final" 
d="M1735 164v-141q0 -11 -6 -17t-15 -6q-88 0 -166 30q-77 30 -157 93q-91 -110 -254 -121l-9 -2h-526q-250 0 -385 120t-135 347q0 166 61 434l160 -27q-24 -117 -38 -212q-11 -76 -11 -158q0 -172 90 -246q91 -74 295 -74h461q152 0 207 111q29 62 41 164q12 105 12 299
h160q0 -332 -58 -504q60 -39 118 -54q62 -16 134 -16q21 0 21 -20zM1024 1329l-123 -123l-125 123l123 125zM887 1081l-156 -153l-156 153l154 158zM1223 1081l-156 -153l-158 153l158 158z" />
    <glyph glyph-name="uniFE9B" unicode="&#x62b;" horiz-adv-x="778" arabic-form="initial" 
d="M563 625q15 -133 15 -234q0 -184 -106 -288q-104 -103 -312 -103h-160q-8 0 -14 6t-6 17v141q0 20 20 20h160q130 0 189 53t59 160q0 90 -15 215q-22 183 -51 381h174q29 -204 47 -368zM528 1554l-122 -122l-125 122l122 125zM391 1307l-155 -154l-156 154l153 157z
M727 1307l-156 -154l-157 154l157 157z" />
    <glyph glyph-name="uniFE9C" unicode="&#x62b;" horiz-adv-x="757" arabic-form="medial" 
d="M778 164v-141q0 -11 -6 -17t-14 -6q-199 0 -379 160q-118 -160 -379 -160q-8 0 -14 6t-6 17v141q0 20 20 20q105 0 168 27t96 82q35 60 45 157q10 93 10 308h162q0 -316 -41 -463q150 -111 318 -111q20 0 20 -20zM516 1327l-123 -123l-125 123l123 125zM379 1079
l-156 -153l-155 153l153 158zM715 1079l-156 -153l-158 153l158 158z" />
    <glyph glyph-name="uniFE9E" unicode="&#x62c;" horiz-adv-x="1333" arabic-form="final" 
d="M1354 164v-141q0 -11 -6 -17t-15 -6q-182 0 -280 79q-99 79 -99 236v121q-190 -30 -351 -104q-160 -74 -252 -178q-93 -105 -93 -228q0 -148 112 -227q111 -78 318 -78q178 0 418 70l51 -158q-161 -53 -269 -74q-111 -22 -224 -22q-278 0 -430 121t-152 352
q0 172 106 312t307 234q202 94 470 124q-78 44 -117 73q-61 45 -131 99q-107 86 -177 126t-151 40q-51 0 -100 -11q-43 -10 -119 -35l-49 156q148 74 278 74q99 0 185 -48q89 -50 217 -153q116 -94 217 -160q99 -65 225 -112l-47 -174q-48 0 -113 -4v-107q0 -84 59 -122
t191 -38q21 0 21 -20zM889 12l-154 -155l-157 155l153 154z" />
    <glyph glyph-name="uniFE9F" unicode="&#x62c;" horiz-adv-x="1247" arabic-form="initial" 
d="M566 931q78 -41 206 -136q110 -86 205 -145q96 -60 219 -105l-47 -174q-134 -27 -228 -68q-84 -37 -212 -113q-95 -58 -190 -102q-78 -36 -208 -62t-309 -26q-10 0 -16 7q-6 8 -6 16v141q0 8 6 14t16 6q164 0 297 25q127 24 216 60t210 96q136 68 236 104
q-119 62 -269 174q-105 78 -170 112q-63 33 -145 33q-57 0 -101 -10t-116 -35l-51 156q153 74 278 74q99 0 179 -42zM682 -309l-154 -156l-157 156l153 153z" />
    <glyph glyph-name="uniFEA0" unicode="&#x62c;" horiz-adv-x="1292" arabic-form="medial" 
d="M1313 164v-141q0 -11 -6 -17t-15 -6q-178 0 -268 81t-96 226q-76 -29 -138 -67q-68 -41 -81 -47q-110 -68 -189 -104q-83 -38 -209 -63q-130 -26 -309 -26q-10 0 -16 7q-6 8 -6 16v141q0 8 6 14t16 6q164 0 297 25q127 24 216 60t210 96q136 68 236 104q-119 62 -269 174
q-105 78 -170 112q-63 33 -145 33q-57 0 -101 -10t-116 -35l-51 156q153 74 278 74q99 0 179 -42q78 -41 206 -136q110 -86 205 -145q96 -60 219 -105l-47 -174q-40 -7 -94 -23q0 -80 54 -122t183 -42q21 0 21 -20zM682 -309l-154 -156l-157 156l153 153z" />
    <glyph glyph-name="uniFEA2" unicode="&#x62d;" horiz-adv-x="1333" arabic-form="final" 
d="M1354 164v-141q0 -11 -6 -17t-15 -6q-182 0 -280 79q-99 79 -99 236v121q-190 -30 -351 -104q-160 -74 -252 -178q-93 -105 -93 -228q0 -148 112 -227q111 -78 318 -78q178 0 418 70l51 -158q-161 -53 -269 -74q-111 -22 -224 -22q-278 0 -430 121t-152 352
q0 172 106 312t307 234q202 94 470 124q-78 44 -117 73q-61 45 -131 99q-107 86 -177 126t-151 40q-51 0 -100 -11q-43 -10 -119 -35l-49 156q148 74 278 74q99 0 185 -48q89 -50 217 -153q116 -94 217 -160q99 -65 225 -112l-47 -174q-48 0 -113 -4v-107q0 -84 59 -122
t191 -38q21 0 21 -20z" />
    <glyph glyph-name="uniFEA3" unicode="&#x62d;" horiz-adv-x="1247" arabic-form="initial" 
d="M566 931q78 -41 206 -136q110 -86 205 -145q96 -60 219 -105l-47 -174q-134 -27 -228 -68q-84 -37 -212 -113q-95 -58 -190 -102q-78 -36 -208 -62t-309 -26q-10 0 -16 7q-6 8 -6 16v141q0 8 6 14t16 6q164 0 297 25q127 24 216 60t210 96q136 68 236 104
q-119 62 -269 174q-105 78 -170 112q-63 33 -145 33q-57 0 -101 -10t-116 -35l-51 156q153 74 278 74q99 0 179 -42z" />
    <glyph glyph-name="uniFEA4" unicode="&#x62d;" horiz-adv-x="1292" arabic-form="medial" 
d="M1313 164v-141q0 -11 -6 -17t-15 -6q-178 0 -268 81t-96 226q-76 -29 -138 -67q-68 -41 -81 -47q-110 -68 -189 -104q-83 -38 -209 -63q-130 -26 -309 -26q-10 0 -16 7q-6 8 -6 16v141q0 8 6 14t16 6q164 0 297 25q127 24 216 60t210 96q136 68 236 104q-119 62 -269 174
q-105 78 -170 112q-63 33 -145 33q-57 0 -101 -10t-116 -35l-51 156q153 74 278 74q99 0 179 -42q78 -41 206 -136q110 -86 205 -145q96 -60 219 -105l-47 -174q-40 -7 -94 -23q0 -80 54 -122t183 -42q21 0 21 -20z" />
    <glyph glyph-name="uniFEA6" unicode="&#x62e;" horiz-adv-x="1333" arabic-form="final" 
d="M1354 164v-141q0 -11 -6 -17t-15 -6q-182 0 -280 79q-99 79 -99 236v121q-190 -30 -351 -104q-160 -74 -252 -178q-93 -105 -93 -228q0 -148 112 -227q111 -78 318 -78q178 0 418 70l51 -158q-161 -53 -269 -74q-111 -22 -224 -22q-278 0 -430 121t-152 352
q0 172 106 312t307 234q202 94 470 124q-78 44 -117 73q-61 45 -131 99q-107 86 -177 126t-151 40q-51 0 -100 -11q-43 -10 -119 -35l-49 156q148 74 278 74q99 0 185 -48q89 -50 217 -153q116 -94 217 -160q99 -65 225 -112l-47 -174q-48 0 -113 -4v-107q0 -84 59 -122
t191 -38q21 0 21 -20zM1026 1282l-154 -154l-157 154l153 156z" />
    <glyph glyph-name="uniFEA7" unicode="&#x62e;" horiz-adv-x="1247" arabic-form="initial" 
d="M566 931q78 -41 206 -136q110 -86 205 -145q96 -60 219 -105l-47 -174q-134 -27 -228 -68q-84 -37 -212 -113q-95 -58 -190 -102q-78 -36 -208 -62t-309 -26q-10 0 -16 7q-6 8 -6 16v141q0 8 6 14t16 6q164 0 297 25q127 24 216 60t210 96q136 68 236 104
q-119 62 -269 174q-105 78 -170 112q-63 33 -145 33q-57 0 -101 -10t-116 -35l-51 156q153 74 278 74q99 0 179 -42zM629 1298l-154 -153l-158 153l154 156z" />
    <glyph glyph-name="uniFEA8" unicode="&#x62e;" horiz-adv-x="1292" arabic-form="medial" 
d="M1313 164v-141q0 -11 -6 -17t-15 -6q-178 0 -268 81t-96 226q-76 -29 -138 -67q-68 -41 -81 -47q-110 -68 -189 -104q-83 -38 -209 -63q-130 -26 -309 -26q-10 0 -16 7q-6 8 -6 16v141q0 8 6 14t16 6q164 0 297 25q127 24 216 60t210 96q136 68 236 104q-119 62 -269 174
q-105 78 -170 112q-63 33 -145 33q-57 0 -101 -10t-116 -35l-51 156q153 74 278 74q99 0 179 -42q78 -41 206 -136q110 -86 205 -145q96 -60 219 -105l-47 -174q-40 -7 -94 -23q0 -80 54 -122t183 -42q21 0 21 -20zM629 1298l-154 -153l-158 153l154 156z" />
    <glyph glyph-name="uniFEAA" unicode="&#x62f;" horiz-adv-x="1060" arabic-form="final" 
d="M1081 164v-141q0 -11 -6 -17t-14 -6q-157 0 -262 106q-184 -106 -398 -106q-99 0 -170 14q-74 14 -200 54l37 170q105 -29 179 -41q83 -13 154 -13q171 0 310 43q-29 55 -54 129q-33 100 -78 287q-38 159 -73 350h184q67 -419 131 -612q35 -104 92 -150q58 -47 148 -47
q20 0 20 -20z" />
    <glyph glyph-name="uniFEAC" unicode="&#x630;" horiz-adv-x="1060" arabic-form="final" 
d="M1081 164v-141q0 -11 -6 -17t-14 -6q-157 0 -262 106q-184 -106 -398 -106q-99 0 -170 14q-74 14 -200 54l37 170q105 -29 179 -41q83 -13 154 -13q171 0 310 43q-29 55 -54 129q-33 100 -78 287q-38 159 -73 350h184q67 -419 131 -612q35 -104 92 -150q58 -47 148 -47
q20 0 20 -20zM745 1294l-153 -153l-158 153l154 156z" />
    <glyph glyph-name="uniFEAE" unicode="&#x631;" horiz-adv-x="698" arabic-form="final" 
d="M717 164v-141q0 -11 -6 -17t-15 -6q-143 0 -209 92v-39q0 -238 -140 -365q-142 -128 -378 -128v168q157 0 255 86t98 247q0 287 -76 840h174q36 -253 53 -498l6 -45q12 -104 68 -139t149 -35q21 0 21 -20z" />
    <glyph glyph-name="uniFEB0" unicode="&#x632;" horiz-adv-x="698" arabic-form="final" 
d="M717 164v-141q0 -11 -6 -17t-15 -6q-143 0 -209 92v-39q0 -238 -140 -365q-142 -128 -378 -128v168q157 0 255 86t98 247q0 287 -76 840h174q36 -253 53 -498l6 -45q12 -104 68 -139t149 -35q21 0 21 -20zM471 1214l-154 -153l-157 153l153 156z" />
    <glyph glyph-name="uniFEB2" unicode="&#x633;" horiz-adv-x="2768" arabic-form="final" 
d="M2789 164v-141q0 -11 -6 -17t-14 -6q-96 0 -177 34q-87 36 -167 105q-49 -64 -130 -102q-78 -37 -175 -37q-148 0 -336 109q-106 -109 -279 -109q-133 0 -284 82q-29 -244 -172 -383t-398 -139q-267 0 -413 137t-146 420q0 196 92 467l148 -39q-76 -207 -76 -398
q0 -201 100 -302t312 -101q204 0 298 111q95 112 95 348q0 107 -17 246q-18 151 -55 397l-8 55h174q32 -217 52 -377q19 -149 20 -272q65 -32 134 -49q79 -19 134 -19q87 0 137 27t78 84q30 60 42 163q11 95 11 300h162q0 -351 -61 -516q56 -27 124 -42q74 -16 121 -16
q89 0 138 27q48 26 77 84q30 60 42 163q12 104 12 300v143h162v-143q0 -315 -52 -486q66 -48 133 -68q68 -20 148 -20q20 0 20 -20z" />
    </font>
</defs>
</svg>
